<?xml version="1.0" standalone="no"?>
<!DOCTYPE svg PUBLIC "-//W3C//DTD SVG 1.1//EN" "http://www.w3.org/Graphics/SVG/1.1/DTD/svg11.dtd" >
<svg xmlns="http://www.w3.org/2000/svg">
<metadata></metadata>
<defs>
<font id="neusademibold" horiz-adv-x="832" >
<font-face units-per-em="2048" ascent="1536" descent="-512" />
<missing-glyph horiz-adv-x="638" />
<glyph unicode=" "  horiz-adv-x="638" />
<glyph unicode="&#x09;" horiz-adv-x="638" />
<glyph unicode="&#xa0;" horiz-adv-x="638" />
<glyph unicode="!" horiz-adv-x="391" d="M112 1492h167v-512l-22 -607h-124l-21 606v513zM106 0v178h179v-178h-179z" />
<glyph unicode="&#x22;" horiz-adv-x="598" d="M79 1491h171l-26 -461h-118zM349 1491h171l-26 -461h-119z" />
<glyph unicode="#" horiz-adv-x="1424" d="M1303 843h-251l-52 -239h251l-51 -182h-254l-102 -422h-196l103 422h-241l-102 -422h-197l102 422h-242l53 182h243l52 239h-242l53 182h243l114 466h195l-112 -466h239l114 466h197l-114 -466h250zM804 604l52 239h-240l-53 -239h241z" />
<glyph unicode="$" horiz-adv-x="1036" d="M938 1036h-181q0 74 -19 131.5t-51.5 91.5t-72.5 51.5t-86 17.5q-96 0 -158.5 -59t-62.5 -170q1 -36 10.5 -66t23 -51.5t36.5 -39.5t41 -28.5t47.5 -21t45.5 -15t44 -11.5q13 -3 19 -5q383 -92 383 -425q0 -102 -25.5 -181.5t-72 -130.5t-105 -81.5t-130.5 -43.5v-105 h-193v104q-53 8 -101 28t-93.5 57t-79 87t-54 123t-21.5 161h182q0 -76 22 -134t59 -91t80.5 -49t91.5 -16q118 0 185 66t67 189q0 60 -19 104t-58 74.5t-86.5 50.5t-117.5 38q-37 10 -65 18.5t-69 26t-71 37t-63 51t-53.5 68.5t-34 89t-13.5 113q0 93 25.5 166t70.5 120 t98.5 75.5t117.5 40.5v106h193v-105q50 -9 94.5 -30.5t85 -58.5t70 -87.5t47 -122t17.5 -157.5z" />
<glyph unicode="%" horiz-adv-x="1458" d="M106 983v291q0 52 17 94t43 67.5t59 42t62 23t56 6.5q29 0 59.5 -7t63 -24.5t58 -43t41.5 -67t16 -91.5v-291q0 -51 -16 -91.5t-41 -66t-58 -42.5t-63 -24t-60 -8q-27 0 -56 6t-62 23t-59 42t-43 67t-17 94zM1047 1491h138l-774 -1491h-137zM459 980v298q0 56 -36.5 84 t-79.5 28q-17 0 -35.5 -5.5t-37 -17.5t-30 -35t-11.5 -54v-298q0 -31 11.5 -54t30 -35t37 -18t35.5 -6q44 1 80 29t36 84zM878 217v292q0 52 17 94t42.5 67t59 41.5t62.5 22.5t56 6q29 0 59.5 -6.5t63 -24t57.5 -43t41 -66.5t16 -91v-292q0 -50 -16 -91t-41 -66.5 t-57.5 -42.5t-63 -24t-59.5 -8q-27 0 -56 6.5t-62.5 23t-59 41.5t-42.5 67t-17 94zM1229 213v299q0 56 -35.5 84t-78.5 28q-17 0 -36 -5.5t-37.5 -18t-30.5 -35.5t-12 -53v-299q0 -30 12 -53t31 -35t37 -18t36 -6q43 0 78.5 28t35.5 84z" />
<glyph unicode="&#x26;" horiz-adv-x="1166" d="M1094 851v-179h-80v-244q0 -75 -12.5 -137.5t-34 -108t-54 -80t-69.5 -56.5t-83.5 -36t-92.5 -20t-100 -7h-32q-76 1 -142.5 15.5t-126 47.5t-102 82t-68 121t-25.5 162v26q0 123 56 208.5t150 115.5q-85 31 -140 112t-55 199v25q1 92 25.5 164t65.5 118t98 76 t117.5 42.5t128.5 12.5h162v-182h-162q-51 0 -93.5 -12.5t-76.5 -39t-53 -73t-19 -108.5v-13q0 -59 20 -104t56 -72.5t81 -41t97 -13.5h296v311h188v-311h80zM826 435v237h-296q-125 0 -195.5 -62.5t-71.5 -182.5v-14q0 -114 78.5 -181.5t198.5 -67.5h21q62 1 108 13 t82.5 41.5t55.5 83.5t19 133z" />
<glyph unicode="'" horiz-adv-x="382" d="M106 1491h171l-26 -461h-118z" />
<glyph unicode="(" horiz-adv-x="600" d="M374 1597h119v-182h-85q-45 0 -77.5 -34t-32.5 -86v-1291q0 -52 32.5 -85.5t77.5 -33.5h85v-182h-119q-118 0 -193 74t-75 200v1346q0 126 75 200t193 74z" />
<glyph unicode=")" horiz-adv-x="600" d="M106 1597h120q118 0 192.5 -74t74.5 -200v-1346q0 -126 -74.5 -200t-192.5 -74h-120v182h86q45 0 77.5 33.5t32.5 85.5v1291q0 52 -32.5 86t-77.5 34h-86v182z" />
<glyph unicode="*" horiz-adv-x="955" d="M396 1526h171l-9 -275l258 93l54 -163l-265 -75l169 -220l-138 -99l-154 228l-155 -228l-138 99l169 220l-265 75l53 163l259 -93z" />
<glyph unicode="+" horiz-adv-x="1160" d="M485 1083h192v-378h378v-183h-377v-377h-193v377h-379v183h379v378z" />
<glyph unicode="," horiz-adv-x="391" d="M106 178h179v-178l-68 -176h-66l31 176h-76v178z" />
<glyph unicode="-" horiz-adv-x="740" d="M106 664h528v-184h-528v184z" />
<glyph unicode="." horiz-adv-x="391" d="M106 0v178h179v-178h-179z" />
<glyph unicode="/" horiz-adv-x="913" d="M71 0l577 1491h196l-578 -1491h-195z" />
<glyph unicode="0" horiz-adv-x="1051" d="M89 498v412q0 114 25.5 204.5t66.5 147.5t98.5 94.5t117.5 53t127 15.5q66 0 126 -15t118 -52.5t100 -94.5t67.5 -147.5t25.5 -205.5v-412q0 -115 -25.5 -205.5t-67.5 -147.5t-100 -94.5t-118 -52.5t-126 -15q-67 0 -127 15.5t-117.5 53t-98.5 94.5t-66.5 147.5 t-25.5 204.5zM770 516v377q0 96 -20 166t-55 109t-77.5 57.5t-93.5 18.5q-52 0 -94 -18t-76.5 -57.5t-53 -109.5t-18.5 -166v-377q0 -96 18.5 -166t53 -109.5t76.5 -58t94 -18.5q51 0 93.5 18.5t77.5 57.5t55 109.5t20 166.5z" />
<glyph unicode="1" horiz-adv-x="472" d="M383 1406v-1406h-194v1224h-125v182h319z" />
<glyph unicode="2" horiz-adv-x="992" d="M492 1424h27q59 -1 115 -15.5t110 -47.5t94.5 -81.5t65.5 -123.5t25 -167v-5q0 -67 -20.5 -126.5t-55 -105t-79 -86.5t-95 -76.5t-101.5 -70t-99 -71t-87.5 -75t-67 -87.5t-36.5 -103h628v-183h-850v100q0 59 12.5 113.5t30.5 96.5t52 85t60.5 71t74.5 65t75.5 56 t80.5 54q59 39 88.5 59.5t74 58.5t66 67.5t38.5 71.5t17 87q0 66 -19.5 117t-52.5 80.5t-71 44.5t-78 15h-15q-40 -1 -77.5 -16t-71 -44.5t-58 -79.5t-34.5 -115h-193l2 16q9 89 39 161.5t71.5 119.5t95 78.5t107.5 45.5t111 16z" />
<glyph unicode="3" horiz-adv-x="1002" d="M492 1425h29q53 -1 107 -13t108.5 -41t96 -71t68 -109t27.5 -149v-26q0 -109 -55 -187.5t-140 -108.5q94 -30 150.5 -114.5t56.5 -198.5v-24q0 -81 -24 -148t-64 -113t-94 -77.5t-113.5 -46t-122.5 -15.5h-30q-57 0 -112.5 14t-110 46.5t-96.5 80t-71 120.5t-36 163l-2 9 h188q8 -68 33 -118.5t61 -78.5t75 -41t81 -13h19q93 1 160 59.5t67 158.5v12q0 112 -70.5 173t-190.5 61h-122v179h122q50 0 93.5 13t79 39t55.5 69t20 99v12q0 50 -21 90.5t-54.5 64t-69.5 36t-70 12.5h-19q-40 -1 -77.5 -14t-72 -40t-60 -74.5t-35.5 -108.5h-189l1 12 q9 85 39 154.5t71.5 115t95 77t107.5 45t111 15.5z" />
<glyph unicode="4" horiz-adv-x="1041" d="M978 471v-181h-119v-290h-192v290h-593v216l380 908h192l-379 -943h400v594h192v-594h119z" />
<glyph unicode="5" horiz-adv-x="1008" d="M128 1414h726v-181h-534v-375l147 3q3 0 27 0.5t40.5 0t41 -1.5t47 -4t42.5 -7q94 -20 159 -79t93.5 -136.5t28.5 -170.5v-85q-1 -79 -25 -144.5t-64 -111t-93.5 -77t-112 -46.5t-121.5 -16h-32q-57 0 -112.5 14t-109.5 46t-96 79.5t-71.5 119.5t-36.5 162l-1 12h187 q8 -68 33.5 -118.5t61 -78.5t74.5 -41.5t82 -13.5h19q45 1 84.5 16t71.5 43t51 74.5t19 104.5v72q0 224 -278 224h-348v716z" />
<glyph unicode="6" horiz-adv-x="1015" d="M71 436v475q0 114 26 204.5t68.5 148t101 95t120 53t128.5 15.5q60 0 116.5 -12.5t112 -43.5t97 -78t67.5 -120.5t28 -166.5h-192q-1 64 -21 112t-53.5 74.5t-72.5 39.5t-82 13q-54 0 -98.5 -17.5t-82 -55.5t-58 -107t-20.5 -164v-190q79 137 250 139h68 q85 1 151.5 -25.5t107 -70t67.5 -102.5t37 -117t10 -120q0 -64 -11 -122.5t-40 -116t-73 -99t-115 -67.5t-161 -27h-75q-190 3 -294 120t-107 333zM475 164h67q56 1 98.5 21.5t67 56.5t36 79.5t11.5 93.5t-11.5 93.5t-35.5 80t-67 58t-99 21.5h-67q-56 0 -98.5 -21.5 t-66.5 -58t-35.5 -80t-11.5 -93.5t12 -93.5t36 -79.5t66 -56.5t98 -21.5z" />
<glyph unicode="7" horiz-adv-x="970" d="M69 1414h829v-147l-538 -1267h-196l524 1232h-619v182z" />
<glyph unicode="8" horiz-adv-x="1019" d="M482 1425h57q79 0 152 -28t129 -77.5t90 -121.5t34 -154v-25q0 -103 -52 -180.5t-142 -120.5q99 -39 153 -119.5t54 -189.5v-24q0 -115 -52 -206t-147.5 -143t-217.5 -52h-57q-123 0 -218.5 52t-147 143t-51.5 206v24q0 109 53.5 189t151.5 119q-90 42 -142.5 120 t-52.5 182v25q0 82 34 154t90 121.5t129.5 77.5t152.5 28zM752 1025v13q0 47 -15.5 84t-39 59t-54 36.5t-57.5 20t-52 5.5h-48q-26 0 -52.5 -5.5t-57 -20t-53.5 -36.5t-38.5 -59t-16.5 -84v-13q0 -46 14 -83t36.5 -59.5t53.5 -37t62 -20t64 -5.5h23q34 0 65 5.5t62 20 t53.5 37t36.5 59.5t14 83zM765 393v14q0 61 -18.5 106.5t-52.5 72t-77 39.5t-95 13h-23q-52 0 -94.5 -13t-76.5 -39.5t-52.5 -72t-18.5 -106.5v-14q0 -59 20 -104.5t53.5 -71t73 -38.5t83.5 -13h48q44 0 83.5 13t73 38.5t53.5 71t20 104.5z" />
<glyph unicode="9" horiz-adv-x="1004" d="M941 973v-475q0 -114 -26 -204.5t-68.5 -147.5t-101.5 -94.5t-120 -53t-128 -15.5q-60 0 -116.5 12.5t-112 43.5t-97 77.5t-68 120.5t-27.5 167h192q1 -64 21 -112t53.5 -75t72.5 -40t82 -13q54 0 98.5 17.5t81.5 56t57.5 107.5t20.5 165v189q-78 -137 -250 -138h-68 q-85 -2 -151.5 24.5t-107 69.5t-67 102t-37 117t-10.5 120q0 64 11.5 122.5t40.5 116t73 99.5t115 68.5t161 26.5h74q190 -2 294.5 -120t107.5 -334zM536 1245h-66q-56 0 -98.5 -21t-67 -57t-36.5 -79t-12 -94q0 -50 11.5 -93.5t36 -79.5t67 -57t99.5 -21h66q56 0 98 20.5 t66.5 57t36 80t11.5 93.5q0 51 -12 94t-36 79t-66 57t-98 21z" />
<glyph unicode=":" horiz-adv-x="391" d="M106 718v176h179v-176h-179zM106 0v178h179v-178h-179z" />
<glyph unicode=";" horiz-adv-x="391" d="M106 894h179v-176h-179v176zM106 0v178h179v-178l-68 -176h-66l31 176h-76z" />
<glyph unicode="&#x3c;" horiz-adv-x="1008" d="M106 697l798 427v-190l-482 -273l482 -272v-189l-798 426v71z" />
<glyph unicode="=" horiz-adv-x="1160" d="M106 922h950v-183h-950v183zM106 556h950v-183h-950v183z" />
<glyph unicode="&#x3e;" horiz-adv-x="1008" d="M106 934v190l798 -427v-71l-798 -426v189l483 272z" />
<glyph unicode="?" horiz-adv-x="1075" d="M528 1503h28q59 0 115.5 -14t111 -47t95.5 -82t66 -124t25 -168v-4q0 -65 -13.5 -118t-36.5 -89t-53 -65t-63 -51t-66 -43t-62.5 -44t-52.5 -51t-36.5 -68t-13.5 -90h-162q0 83 20 146t52.5 101.5t72 69t78.5 57.5t71.5 57t53 77t20.5 110q0 66 -20 117t-52.5 81 t-70.5 45t-79 15h-14q-41 -1 -78.5 -16t-71 -44.5t-58 -79.5t-34.5 -115h-194l2 11q9 91 39 163.5t71 120t94 79.5t106.5 46.5t109.5 16.5zM402 178h179v-178h-179v178z" />
<glyph unicode="@" horiz-adv-x="1703" d="M1135 -292h-309q-191 0 -327.5 53t-223.5 162.5t-128 270.5t-41 384q-1 218 41.5 374t133.5 259.5t233.5 153t343.5 48.5q107 0 196.5 -12t158.5 -33.5t124.5 -55t95.5 -72.5t69 -91t47 -104.5t29 -119.5t14.5 -130.5t3.5 -141.5v-341q0 -125 -76.5 -205.5t-214.5 -80.5 q-178 -1 -244 128q-36 -78 -100 -115.5t-147 -37.5q-44 0 -84 11t-78.5 38.5t-67 69.5t-45.5 107.5t-17 148.5v352q0 83 17.5 149t45.5 107.5t66.5 68.5t78.5 38t84 11q166 0 240 -137l18 119h116v-772q0 -70 24 -104.5t92 -34.5q64 0 98 36.5t34 106.5v349q0 85 -4.5 145 t-18.5 127.5t-38.5 112.5t-67 89.5t-102.5 70t-146.5 41.5t-197.5 16q-114 0 -200.5 -15.5t-154 -51t-113 -88.5t-75 -131t-42 -176t-12.5 -227q0 -149 17.5 -261.5t57.5 -201.5t105.5 -145.5t160 -86t222.5 -29.5h308v-146zM682 649v-195q1 -89 13.5 -150.5t36.5 -95 t54 -47.5t70 -14t70 14t54 47.5t36 95t12 150.5v195q0 90 -13 152t-37.5 95.5t-54 47.5t-68.5 14t-68.5 -14t-54 -47.5t-37.5 -96t-13 -151.5z" />
<glyph unicode="A" horiz-adv-x="1122" d="M847 0l-103 412h-365l-104 -412h-188l355 1491h236l357 -1491h-188zM402 601h317l-158 669z" />
<glyph unicode="B" horiz-adv-x="996" d="M116 1491h362q65 0 124.5 -11.5t115 -38.5t97 -66.5t66 -100t24.5 -134.5v-67q0 -111 -54 -186.5t-146 -114.5q112 -39 173 -125t61 -211v-60q0 -181 -119.5 -278.5t-327.5 -97.5h-376v1491zM722 1068v25q0 56 -21 99t-56.5 67.5t-78 36.5t-91.5 12h-171v-456h171 q51 0 94.5 12.5t78 38t54.5 68t20 97.5zM749 417v27q0 115 -69 175t-192 60h-184v-498h184q123 0 192 60t69 176z" />
<glyph unicode="C" horiz-adv-x="1032" d="M114 498v496q0 115 25 205t66.5 147.5t99 95t117.5 53t127 15.5q64 0 121.5 -14.5t113 -50t96 -89.5t66.5 -139.5t30 -194.5v-38h-189l-1 34q-9 163 -72.5 236.5t-164.5 73.5q-52 0 -94 -18t-76.5 -57.5t-53 -109.5t-18.5 -165v-462q0 -96 18.5 -166t53 -109.5t76.5 -58 t94 -18.5q100 0 163.5 73t73.5 234l1 39h189v-37q-3 -109 -29 -194.5t-66.5 -140t-96 -90.5t-113.5 -50.5t-122 -14.5q-67 0 -127 15.5t-117.5 53t-99 94.5t-66.5 147.5t-25 204.5z" />
<glyph unicode="D" horiz-adv-x="1047" d="M116 1491h393q66 0 125 -14t116.5 -51t99 -93.5t66.5 -148t25 -208.5v-460q0 -118 -25 -209.5t-66.5 -148t-99 -93t-116.5 -51t-125 -14.5h-393v1491zM753 534v425q0 95 -19.5 165.5t-54.5 109.5t-77 57t-93 18h-205v-1127h205q51 0 93 18t77 57.5t54.5 110t19.5 166.5z " />
<glyph unicode="E" horiz-adv-x="819" d="M761 1309h-457v-457h436v-181h-436v-489h457v-182h-645v1491h645v-182z" />
<glyph unicode="F" horiz-adv-x="802" d="M745 1309h-441v-478h420v-181h-420v-650h-188v1491h629v-182z" />
<glyph unicode="G" horiz-adv-x="1083" d="M114 498v496q0 115 25 205t65.5 147.5t97 95t116.5 53t127 15.5q65 0 123.5 -15t114.5 -51.5t96.5 -92t66 -144t26.5 -200.5v-22h-183v14q-2 90 -22.5 155.5t-55 102.5t-75.5 54t-91 17q-52 0 -94.5 -18t-77 -57.5t-53 -109.5t-18.5 -165v-462q0 -96 18.5 -166t53 -109.5 t77 -58t94.5 -18.5q51 0 93 17.5t77 56t54.5 107.5t19.5 165v122h-234v182h418v-316q0 -115 -24.5 -205.5t-65.5 -147.5t-97.5 -94t-115.5 -52.5t-125 -15.5q-67 0 -127 15.5t-116.5 53t-97 95t-65.5 147.5t-25 204z" />
<glyph unicode="H" horiz-adv-x="1038" d="M736 1491h188v-1491h-188v671h-432v-671h-188v1491h188v-639h432v639z" />
<glyph unicode="I" horiz-adv-x="425" d="M116 0v1491h194v-1491h-194z" />
<glyph unicode="J" horiz-adv-x="691" d="M389 1491h188v-993q0 -110 -23.5 -198.5t-62 -145.5t-91.5 -95.5t-109 -55.5t-117 -20h-87v181h51q52 2 95 21.5t79 58.5t56.5 108.5t20.5 163.5v975z" />
<glyph unicode="K" horiz-adv-x="1075" d="M988 0h-222l-456 669v-669h-194v1491h194v-631l419 631h216l-467 -730z" />
<glyph unicode="L" d="M304 182h441v-182h-629v1491h188v-1309z" />
<glyph unicode="M" horiz-adv-x="1343" d="M1000 1491h228v-1491h-182v1045l-316 -1045h-122l-316 1045v-1045h-182v1491h228l332 -1104z" />
<glyph unicode="N" horiz-adv-x="1077" d="M784 1491h182v-1491h-184l-489 1064v-1064h-183v1491h185l489 -1064v1064z" />
<glyph unicode="O" horiz-adv-x="1075" d="M102 498v496q0 115 25 205t66.5 147.5t98.5 95t117 53t128 15.5q66 0 126 -15t117.5 -52.5t99.5 -95t67.5 -148t25.5 -205.5v-496q0 -115 -25.5 -205.5t-67.5 -147.5t-99.5 -94.5t-117.5 -52.5t-126 -15q-68 0 -128 15.5t-117 53t-98.5 94.5t-66.5 147.5t-25 204.5z M781 516v462q0 95 -19.5 165t-54.5 109.5t-77 57.5t-93 18q-53 0 -95 -18t-76 -57.5t-53 -109.5t-19 -165v-462q0 -96 19 -166t53 -109.5t76 -58t95 -18.5q51 0 93 18.5t77 57.5t54.5 109.5t19.5 166.5z" />
<glyph unicode="P" horiz-adv-x="1015" d="M116 1490h334q69 0 132 -11.5t123.5 -40.5t105 -73t71.5 -113t27 -156v-84q0 -82 -25.5 -148.5t-67 -110.5t-98.5 -74.5t-117.5 -44.5t-126.5 -16h-170v-618h-188v1490zM726 1039v31q0 55 -14.5 97.5t-38 69t-57 43.5t-67.5 23.5t-73 6.5h-172v-511h172q39 0 73 7t67 24 t57 43.5t38.5 69t14.5 96.5z" />
<glyph unicode="Q" horiz-adv-x="1154" d="M1040 165v-182h-464h-31q-67 0 -127 15.5t-116.5 53t-97 95t-65.5 147.5t-25 204v496q0 115 25 205t65.5 147.5t97 95t116.5 53t127 15.5q66 0 125.5 -15t116.5 -52.5t98 -95t66.5 -148t25.5 -205.5v-496q0 -205 -79 -333h142zM302 978v-462q0 -96 18.5 -166t53 -109.5 t77 -58t94.5 -18.5q1 0 2 0.5t2 0.5h12q48 3 88 23t72 59.5t50 107.5t18 161v462q0 95 -19.5 165t-54 109.5t-77 57.5t-93.5 18q-52 0 -94.5 -18t-77 -57.5t-53 -109.5t-18.5 -165z" />
<glyph unicode="R" horiz-adv-x="1028" d="M116 1490h347q68 0 131 -11.5t124 -40.5t105 -72.5t71 -113t27 -156.5v-72q0 -69 -19 -126t-53.5 -97.5t-76 -68t-92.5 -45.5l262 -687h-198l-233 630h-207v-630h-188v1490zM737 1051v19q0 55 -14 97.5t-37.5 69t-56.5 43.5t-67 23.5t-73 6.5h-185v-499h185q38 0 72 7 t67 24t56.5 43.5t38 69t14.5 96.5z" />
<glyph unicode="S" horiz-adv-x="1036" d="M82 454h183q0 -76 22 -134t58.5 -91t80 -49t91.5 -16q118 0 185 63.5t67 185.5q0 51 -13.5 90.5t-35.5 67t-59 49.5t-76.5 36.5t-95.5 28.5q-38 10 -65.5 18.5t-69 26t-71 37t-62.5 51t-54 68.5t-34.5 89.5t-13.5 113.5q0 92 23.5 165t62.5 120.5t92.5 78.5t110.5 44 t120 13t119.5 -14.5t110.5 -50t93.5 -88.5t63 -135.5t23.5 -185.5h-181q0 74 -19 131.5t-51.5 91.5t-72.5 51.5t-86 17.5q-96 0 -158.5 -59t-62.5 -170q1 -36 10.5 -66.5t22.5 -51.5t35.5 -39t40 -28.5t47 -21t45.5 -15t44 -10.5q15 -4 22 -6q201 -48 292 -156.5t91 -274.5 q0 -99 -23.5 -176.5t-63.5 -127.5t-97 -82.5t-120 -46.5t-136 -14q-65 0 -124.5 14.5t-116.5 49.5t-99 87.5t-68 135t-27 184.5z" />
<glyph unicode="T" horiz-adv-x="941" d="M855 1491v-182h-290v-1309h-187v1309h-291v182h768z" />
<glyph unicode="U" horiz-adv-x="1081" d="M304 508v983h-188v-1001q0 -113 24.5 -202t64.5 -145.5t96 -93t115.5 -51.5t126.5 -15q66 0 125 15t115.5 51.5t97.5 92.5t65.5 145t24.5 203v1001h-187v-983q0 -94 -19 -162.5t-53 -107t-76 -56.5t-93 -18q-52 0 -94 18t-75.5 56.5t-51.5 107t-18 162.5z" />
<glyph unicode="V" horiz-adv-x="1122" d="M847 1491h190l-356 -1491h-239l-355 1491h190l285 -1193z" />
<glyph unicode="W" horiz-adv-x="1686" d="M1410 1491h191l-310 -1491h-219l-229 1040l-229 -1040h-219l-308 1491h190l239 -1174l239 1174h177l239 -1174z" />
<glyph unicode="X" horiz-adv-x="1083" d="M990 1491l-325 -734l333 -757h-196l-258 571l-261 -571h-196l332 755l-322 736h195l251 -561l251 561h196z" />
<glyph unicode="Y" horiz-adv-x="1096" d="M813 1491h198l-368 -890v-601h-194v600l-362 891h196l263 -676z" />
<glyph unicode="Z" horiz-adv-x="1045" d="M288 183h675v-183h-881v155l666 1154h-649v182h852v-159z" />
<glyph unicode="[" horiz-adv-x="542" d="M438 1414h-138v-1528h138v-184h-332v1895h332v-183z" />
<glyph unicode="\" horiz-adv-x="913" d="M71 1491h195l578 -1491h-195z" />
<glyph unicode="]" horiz-adv-x="542" d="M106 1597h332v-1895h-332v184h139v1528h-139v183z" />
<glyph unicode="^" horiz-adv-x="1006" d="M106 912l398 559l398 -559h-144l-255 365l-253 -365h-144z" />
<glyph unicode="_" horiz-adv-x="1094" d="M106 -87h882v-183h-882v183z" />
<glyph unicode="`" horiz-adv-x="551" d="M116 1512h197l123 -298h-131z" />
<glyph unicode="a" horiz-adv-x="829" d="M627 1065h117v-1065h-117l-18 124q-72 -141 -240 -141q-44 0 -84 11t-78.5 38.5t-67 69t-45.5 107.5t-17 149v351q0 83 17 149t45.5 107.5t67 69t78.5 38.5t84 11q167 0 239 -137zM237 630v-193q0 -89 13 -151t37.5 -95.5t54.5 -48t70 -14.5t70 14.5t54 48t36 95.5 t11 151v193q0 90 -12.5 152t-37 95.5t-54 47.5t-68.5 14t-68.5 -14t-54.5 -47.5t-38 -95.5t-13 -152z" />
<glyph unicode="b" horiz-adv-x="834" d="M251 1491v-527q34 61 91.5 90.5t127.5 29.5q44 0 83.5 -11t77.5 -38.5t65.5 -69t44 -107.5t16.5 -149v-351q0 -83 -16.5 -149t-44 -107.5t-65.5 -69t-77.5 -38.5t-83.5 -11q-80 0 -143 35t-100 108l-20 -126h-115v1491h159zM598 437v193q0 90 -13 152t-38 95.5 t-54.5 47.5t-68.5 14t-68.5 -14t-54 -47.5t-37 -95.5t-12.5 -152v-193q-1 -89 11 -151t36 -95.5t54 -48t70 -14.5t70 14.5t54.5 48t37.5 95.5t13 151z" />
<glyph unicode="c" horiz-adv-x="813" d="M78 358v351q0 83 19.5 148.5t51.5 107t75.5 69t89 39t95.5 11.5q49 0 93.5 -10.5t87.5 -37t75 -66t52.5 -102.5t21.5 -143v-43h-156q-5 257 -173 257q-40 0 -69.5 -14t-54 -47.5t-37 -95.5t-12.5 -152v-193q1 -90 13 -151.5t36 -95.5t54 -48t71 -14q37 0 66 12t53.5 40 t38 80t14.5 125h156v-41q-1 -80 -21.5 -143.5t-52 -103.5t-75 -66t-88 -37t-93.5 -11q-50 0 -95.5 11.5t-89 39t-75.5 69t-51.5 107t-19.5 148.5z" />
<glyph unicode="d" horiz-adv-x="829" d="M583 1491h161v-1491h-117l-19 126q-37 -73 -100 -108t-143 -35q-44 0 -83.5 11t-77.5 38.5t-65.5 69t-44 107.5t-16.5 149v351q0 83 16.5 149t44 107.5t65.5 69t77.5 38.5t83.5 11q70 0 127 -29.5t91 -90.5v527zM237 630v-193q0 -89 13 -151t37.5 -95.5t54.5 -48 t70 -14.5t70 14.5t54 48t36 95.5t11 151v193q0 90 -12.5 152t-37 95.5t-54 47.5t-68.5 14t-68.5 -14t-54.5 -47.5t-38 -95.5t-13 -152z" />
<glyph unicode="e" horiz-adv-x="815" d="M78 358l-1 351q0 83 19.5 148.5t51.5 107t76 69t89.5 39t95 11.5t95 -11t90 -38.5t76.5 -69t52 -107.5t20 -149v-240h-505v-80q0 -75 13 -127.5t37.5 -81t54 -40.5t69.5 -12q162 0 171 220h160q-2 -81 -22 -145t-52.5 -104.5t-76 -67t-88.5 -37.5t-94 -11 q-50 0 -95.5 11.5t-89 39t-75.5 69t-51.5 107t-19.5 148.5zM581 590v97q0 72 -14 123t-39.5 78t-54 39t-63.5 12q-38 0 -67 -11.5t-54 -39t-38.5 -78.5t-13.5 -124v-96h344z" />
<glyph unicode="f" horiz-adv-x="651" d="M513 1510h68v-144h-30q-40 -1 -66.5 -7t-48.5 -22t-33.5 -45.5t-18 -75t-6.5 -113.5l1 -38h202v-146h-202v-919h-161v919h-146v145h146v71q0 90 14.5 156.5t39 108t63 66t80.5 34t98 10.5z" />
<glyph unicode="g" d="M78 374l-1 335q0 83 17 149t44.5 107.5t65.5 69t77.5 38.5t83.5 11q79 0 142.5 -34.5t100.5 -105.5l19 122h117v-1063q-1 -81 -21 -146t-52 -106t-75.5 -68t-89 -38t-94.5 -11q-53 0 -101.5 13t-93.5 41.5t-78 79.5t-46 121h163q37 -111 155 -111q38 0 68 12t54 38.5 t37 76t13 119.5v99q-67 -123 -218 -123q-44 0 -83.5 11t-77.5 38.5t-65.5 69t-44 107t-16.5 148.5zM583 446v184q1 90 -11.5 152t-37 95.5t-54 47.5t-69 14t-69 -14t-54 -47.5t-38 -96t-13.5 -151.5v-184q0 -89 13 -151t37.5 -95.5t54 -48t69.5 -14.5t69.5 14.5t53.5 48 t36.5 95.5t12.5 151z" />
<glyph unicode="h" horiz-adv-x="845" d="M256 1491v-532q34 63 90.5 94t127.5 31q44 0 84 -11t78 -38.5t65.5 -69t44 -107.5t16.5 -149v-709h-160v630q0 90 -13 152t-38 95.5t-54.5 47.5t-68.5 14q-37 0 -66.5 -12.5t-54.5 -41.5t-38 -83.5t-13 -131.5v-670h-160v1491h160z" />
<glyph unicode="i" horiz-adv-x="366" d="M96 1232v167h179v-167h-179zM106 0v1065h159v-1065h-159z" />
<glyph unicode="j" horiz-adv-x="553" d="M286 1398h177v-164h-177v164zM294 1065h160v-1058q0 -91 -14 -158t-38.5 -108t-63.5 -66t-81.5 -34t-99.5 -9h-65v144h27q42 1 69 7.5t49.5 23.5t34 48.5t17.5 79t5 117.5v1013z" />
<glyph unicode="k" horiz-adv-x="793" d="M726 0h-169l-307 461v-461h-160v1491h160v-859l290 433h168l-317 -519z" />
<glyph unicode="l" horiz-adv-x="338" d="M96 0v1491h160v-1491h-160z" />
<glyph unicode="m" horiz-adv-x="1341" d="M207 1065l22 -124q37 72 99.5 107.5t140.5 35.5q53 0 98.5 -15.5t86.5 -55.5t64 -102q34 87 101 130t153 43q44 0 84 -11t77.5 -38.5t65 -69t44 -107.5t16.5 -149v-709h-159v630q0 90 -13 152t-37.5 95.5t-54.5 47.5t-68 14q-156 0 -171 -205v-734h-159v630q0 90 -13 152 t-38 95.5t-54.5 47.5t-68.5 14q-37 0 -66.5 -12t-54.5 -39.5t-38 -79.5t-13 -126v-682h-159v1065h115z" />
<glyph unicode="n" horiz-adv-x="840" d="M207 1065l22 -124q37 72 99.5 107.5t141.5 35.5q44 0 83.5 -11t77.5 -38.5t65.5 -69t44 -107.5t16.5 -149v-709h-159v630q0 90 -13 152t-38 95.5t-54.5 47.5t-68.5 14q-38 0 -67.5 -12.5t-54.5 -41.5t-38 -83.5t-13 -131.5v-670h-159v1065h115z" />
<glyph unicode="o" horiz-adv-x="819" d="M78 358v351q0 83 19.5 148.5t51.5 107t75.5 69t89 39t95.5 11.5t95.5 -11t90 -38.5t76.5 -69t52 -107.5t20 -149v-351q0 -83 -20 -149t-52 -107.5t-76.5 -69t-90 -38.5t-95.5 -11t-95.5 11.5t-89 39t-75.5 69t-51.5 107t-19.5 148.5zM583 437v193q0 89 -13 151.5t-38 96 t-54.5 47.5t-67.5 14q-40 0 -69.5 -14t-54 -47.5t-37 -95.5t-12.5 -152v-193q1 -90 13 -151.5t36 -95.5t54 -48t71 -14q39 0 69 14.5t54.5 48t37 95.5t11.5 151z" />
<glyph unicode="p" d="M206 1066l19 -126q37 73 100 108t143 35q44 0 83.5 -11t77.5 -38.5t66 -69t44.5 -107.5t16.5 -149v-351q0 -83 -16.5 -149t-44.5 -107.5t-66 -69t-77.5 -39t-83.5 -11.5q-70 0 -127 30t-91 91v-449h-160v1413h116zM596 435v194q0 89 -13 151t-37.5 95.5t-54.5 48 t-70 14.5t-70 -14t-53.5 -48t-35.5 -96t-11 -151v-194q0 -90 12.5 -152t36.5 -95t53.5 -47t68.5 -14t68.5 14t54.5 47t38 95t13 152z" />
<glyph unicode="q" horiz-adv-x="829" d="M627 1066h117v-1413h-161v449q-34 -61 -91 -91t-127 -30q-44 0 -83.5 11.5t-77.5 39t-65.5 69t-44 107.5t-16.5 149v351q0 83 16.5 149t44 107.5t65.5 69t77.5 38.5t83.5 11q80 0 143 -35t100 -108zM237 629v-194q0 -90 13 -152t38 -95t54.5 -47t68.5 -14t68.5 14t54 47 t37 95t12.5 152v194q1 89 -11 151t-36 95.5t-54 48t-70 14.5t-70 -14.5t-54.5 -48t-37.5 -95.5t-13 -151z" />
<glyph unicode="r" horiz-adv-x="572" d="M207 1065l27 -152q44 83 115 127t156 44v-144q-117 0 -185.5 -78t-68.5 -241v-621h-159v1065h115z" />
<glyph unicode="s" horiz-adv-x="793" d="M224 323v-21q1 -48 16.5 -83t41 -54t54.5 -28t61 -9q80 0 127 39.5t47 124.5q0 89 -49.5 135t-150.5 72q-42 9 -78.5 22.5t-76 37t-66.5 54t-45 76.5t-18 101q0 76 25 134t69.5 92t99.5 51t120 17q62 0 116.5 -19.5t99.5 -56.5t72 -97.5t30 -137.5v-21h-161v20 q-4 87 -48 127t-108 40q-71 0 -113.5 -33t-42.5 -106q1 -32 14 -58.5t29.5 -42.5t43 -29.5t44.5 -19.5t44 -14q87 -20 148.5 -53.5t96 -78t49.5 -94t15 -109.5q0 -83 -25.5 -145t-72 -99t-105.5 -55.5t-130 -18.5q-48 0 -94 11.5t-89 37t-75.5 61.5t-52.5 88.5t-22 115.5v26 h160z" />
<glyph unicode="t" horiz-adv-x="651" d="M378 921v-509q0 -76 6 -126t17.5 -82.5t34 -49t49 -23t69.5 -6.5h27v-144h-66q-57 1 -98.5 9.5t-81 33t-63.5 66.5t-39 111.5t-15 165.5v554h-146v144h146v325h160v-325h203v-144h-203z" />
<glyph unicode="u" d="M590 1065h160v-1065h-117l-20 124q-37 -72 -100 -107.5t-142 -35.5q-44 0 -83.5 11t-77.5 38.5t-65.5 69t-44.5 107.5t-17 149v709h160v-630q0 -90 13.5 -152t38 -95.5t54 -47.5t68.5 -14q38 0 67.5 12.5t54 41.5t38 83.5t13.5 131.5v670z" />
<glyph unicode="v" horiz-adv-x="937" d="M708 1065h161l-307 -1064h-184l-309 1064h161l239 -820z" />
<glyph unicode="w" horiz-adv-x="1388" d="M1160 1065h161l-245 -1065h-192l-189 756l-190 -756h-192l-244 1065h161l190 -847l205 847h138l205 -847z" />
<glyph unicode="x" horiz-adv-x="860" d="M787 1065l-235 -524l240 -541h-165l-196 407l-197 -407h-165l240 539l-234 526h166l190 -433l190 433h166z" />
<glyph unicode="y" horiz-adv-x="802" d="M575 1066h159v-1078q-2 -78 -22.5 -140t-52.5 -101.5t-75 -65.5t-87.5 -36.5t-92.5 -10.5q-42 0 -81 8t-78.5 26.5t-70.5 47t-55.5 73t-35.5 100.5h165q36 -111 154 -111q39 0 68.5 12t54 38.5t37.5 75.5t13 119v101q-34 -63 -91 -93.5t-128 -30.5q-44 0 -83.5 11 t-77.5 38.5t-65.5 69t-44 107t-16.5 148.5v691h159v-612q0 -89 13 -151.5t37.5 -95.5t54.5 -47t68 -14q40 0 69.5 14t54 47t37.5 95.5t13 151.5v613z" />
<glyph unicode="z" horiz-adv-x="776" d="M245 145h463v-145h-639v121l459 798h-435v146h609v-122z" />
<glyph unicode="{" horiz-adv-x="811" d="M586 1597h118v-182h-86q-44 0 -76 -34t-32 -86v-356q0 -106 -47 -182t-139 -99q93 -23 139.5 -93t46.5 -168v-393q0 -52 32 -85.5t76 -33.5h86v-182h-118q-119 0 -193.5 73.5t-76.5 200.5v368q-2 116 -51.5 166t-146.5 55h-12v184h12q97 3 146.5 52.5t52.5 164.5v356 q3 127 77 200.5t192 73.5z" />
<glyph unicode="|" horiz-adv-x="404" d="M106 1491h194v-1619h-194v1619z" />
<glyph unicode="}" horiz-adv-x="811" d="M106 1597h120q117 0 191 -73.5t77 -200.5v-358q2 -113 52 -162t148 -53h10v-184h-10q-98 -4 -148 -55t-53 -169v-365q-2 -127 -75.5 -200.5t-191.5 -73.5h-120v183h86q45 0 77.5 34t32.5 85v392q0 98 46 168.5t138 92.5q-92 24 -138 99.5t-46 181.5v356q0 51 -32.5 85 t-77.5 34h-86v183z" />
<glyph unicode="~" horiz-adv-x="1181" d="M249 435h-142q0 98 27 175.5t86.5 126t143.5 48.5q57 0 103 -18t116 -60l36 -24t39 -25.5t34 -19.5t40.5 -18.5t38 -9t44.5 -4.5q58 3 88.5 46.5t30.5 111.5h142q0 -94 -25 -167.5t-80.5 -120t-135.5 -46.5q-33 0 -62.5 5.5t-60 19.5t-49 24.5t-55.5 34.5t-54 34 q-95 63 -167 59q-65 -2 -101.5 -50t-36.5 -122z" />
<glyph unicode="&#xa1;" horiz-adv-x="391" d="M106 1145h179v-178h-179v178zM133 772h124l22 -607v-512h-167v513z" />
<glyph unicode="&#xa2;" horiz-adv-x="815" d="M329 1280h161v-210q50 -9 92 -32.5t78 -63.5t57 -104t22 -146v-42h-157q-5 257 -172 257q-40 0 -69.5 -14t-54 -47.5t-37 -95.5t-12.5 -152v-193q1 -90 13 -151.5t36 -95.5t54 -48t71 -14q37 0 66 12t53.5 40t38 80t14.5 125h156v-41q-1 -82 -22 -146t-57 -104.5 t-78 -63.5t-92 -33v-205h-160v204q-52 10 -95.5 34t-79.5 66t-56.5 108.5t-20.5 153.5v351q0 87 20.5 154t56.5 108.5t79 66t95 33.5v209z" />
<glyph unicode="&#xa3;" horiz-adv-x="1122" d="M1050 1000h-191v12q-5 85 -25 148t-53 99t-72.5 52.5t-88.5 16.5q-52 0 -94.5 -18t-76.5 -57.5t-52.5 -109.5t-18.5 -165v-153h306v-183h-306v-459h615v-183h-920v183h112v459h-112v183h112v177q1 112 26.5 201t66.5 145.5t98 94t117 52.5t127 15q64 0 122 -14.5 t114.5 -50t97.5 -90t67.5 -141t28.5 -195.5v-19z" />
<glyph unicode="&#xa4;" horiz-adv-x="1277" />
<glyph unicode="&#xa5;" horiz-adv-x="1175" d="M911 1491h197l-281 -538h235v-184h-306l-52 -91l-4 -35h363v-184h-380v-459h-193v459h-376v184h361l-4 35l-52 91h-305v184h234l-281 538h197l323 -652z" />
<glyph unicode="&#xa6;" horiz-adv-x="406" d="M106 1491h195v-682h-195v682zM106 553h195v-681h-195v681z" />
<glyph unicode="&#xa7;" horiz-adv-x="880" d="M249 191l-1 -20q1 -54 19 -94t46.5 -62.5t61 -33t66.5 -10.5q87 0 139.5 44t52.5 136q0 44 -11.5 78.5t-30 57.5t-49.5 41.5t-61.5 30t-73.5 22.5q-46 9 -86 23.5t-82 40.5t-71.5 59.5t-48.5 84.5t-19 113q0 157 108 238q-108 84 -108 227q0 84 27.5 148.5t76.5 102 t109 56t130 18.5q69 0 130.5 -21.5t110.5 -63t78.5 -110t31.5 -154.5v-18h-177v14q-1 50 -16.5 88.5t-40.5 60.5t-54 32.5t-62 10.5q-72 0 -119.5 -37.5t-47.5 -116.5q0 -34 11.5 -62t28 -45.5t45 -33t50.5 -23.5t56 -18q344 -77 344 -370q0 -148 -82 -235q82 -92 82 -231 q0 -89 -29 -157t-80 -109.5t-117 -62t-145 -20.5q-52 0 -103 12.5t-99.5 41t-85 69t-59.5 101t-23 132.5v25h178zM370 860q-47 -15 -75.5 -52t-28.5 -97q0 -23 6 -43.5t13.5 -35t23 -28.5t26 -21.5t33 -17.5t32 -13.5t35 -11.5t31.5 -11q75 -24 118 -55q63 49 63 149 q0 46 -14.5 80.5t-43.5 58.5t-59 39t-73 30q-82 27 -87 29z" />
<glyph unicode="&#xa8;" horiz-adv-x="663" d="M113 1326v165h166v-165h-166zM390 1326v165h166v-165h-166z" />
<glyph unicode="&#xa9;" horiz-adv-x="1298" d="M650 1491q117 0 222.5 -46t181 -123.5t120 -183.5t44.5 -221t-44.5 -221t-120 -183.5t-181 -124t-222.5 -46.5t-222.5 46.5t-181 124t-120 183.5t-44.5 221.5t44.5 221t120 183t181 123.5t222.5 46zM650 1383q-98 0 -183.5 -37.5t-144.5 -100.5t-92.5 -148.5 t-33.5 -179.5t33.5 -179t92.5 -148t144.5 -100.5t183.5 -37.5t184 37.5t145 100.5t93 148t34 179t-34 179.5t-93 148.5t-145 100.5t-184 37.5zM417 866v106q0 83 19.5 143.5t53.5 93.5t73.5 48.5t85.5 15.5q44 0 81.5 -12t70.5 -38.5t54.5 -75t27.5 -113.5v-17h-96 q-11 93 -46 130.5t-92 37.5q-32 0 -55 -12t-42 -40t-28.5 -80t-9.5 -127v-14q0 -75 9 -126.5t28 -80.5t42.5 -41t56.5 -12q58 0 92.5 38t45.5 131h95v-17q-6 -65 -27.5 -112.5t-54.5 -74.5t-70.5 -39t-81.5 -12q-46 0 -85.5 15t-73.5 48.5t-53.5 94t-19.5 142.5z" />
<glyph unicode="&#xaa;" horiz-adv-x="829" d="M627 1065h117v-1065h-117l-18 124q-72 -141 -240 -141q-44 0 -84 11t-78.5 38.5t-67 69t-45.5 107.5t-17 149v351q0 83 17 149t45.5 107.5t67 69t78.5 38.5t84 11q167 0 239 -137zM237 630v-193q0 -89 13 -151t37.5 -95.5t54.5 -48t70 -14.5t70 14.5t54 48t36 95.5 t11 151v193q0 90 -12.5 152t-37 95.5t-54 47.5t-68.5 14t-68.5 -14t-54.5 -47.5t-38 -95.5t-13 -152z" />
<glyph unicode="&#xab;" horiz-adv-x="836" d="M437 669l294 253v-191l-188 -158l188 -157v-191l-294 253v191zM107 669l294 253v-191l-189 -158l189 -157v-191l-294 253v191z" />
<glyph unicode="&#xac;" horiz-adv-x="1160" d="M1056 360h-193v238h-757v184h950v-422z" />
<glyph unicode="&#xae;" horiz-adv-x="1298" d="M650 1481q117 0 222.5 -46t181 -123.5t120 -183.5t44.5 -221t-44.5 -221t-120 -183.5t-181 -123.5t-222.5 -46t-222.5 46t-181 123.5t-120 183.5t-44.5 221t44.5 221t120 183.5t181 123.5t222.5 46zM650 1373q-98 0 -183.5 -37.5t-144.5 -100.5t-92.5 -148.5t-33.5 -180 t33.5 -179.5t92.5 -148t144.5 -100t183.5 -37t184 37t145 100t93 148.5t34 179.5t-34 179.5t-93 148.5t-145 100.5t-184 37.5zM456 1252h197q99 0 159 -53t60 -136v-21q-2 -60 -38.5 -104.5t-95.5 -60.5l158 -312h-105l-145 285h-93v-285h-97v687zM553 948h97q56 0 89.5 28 t33.5 80q0 51 -33.5 78.5t-89.5 27.5h-97v-214z" />
<glyph unicode="&#xaf;" horiz-adv-x="811" d="M106 1491h599v-145h-599v145z" />
<glyph unicode="&#xb0;" horiz-adv-x="766" d="M383 1583q114 0 195 -81t81 -195t-81 -195.5t-195 -81.5t-195.5 81.5t-81.5 195.5t81.5 195t195.5 81zM383 1449q-60 0 -101.5 -41.5t-41.5 -100.5t42 -101t101 -42q60 0 101 42t41 101q0 60 -41 101t-101 41z" />
<glyph unicode="&#xb1;" horiz-adv-x="1160" d="M485 1116h193v-233h378v-183h-378v-232h-193v232h-379v183h379v233zM1056 43h-950v183h950v-183z" />
<glyph unicode="&#xb4;" horiz-adv-x="551" d="M239 1511h197l-190 -299h-130z" />
<glyph unicode="&#xb6;" horiz-adv-x="1309" d="M387 1491h851v-183h-82v-1655h-192v1655h-185v-1655h-192v1003h-200q-133 0 -224 91t-91 224v204q0 82 41 154.5t114.5 117t159.5 44.5z" />
<glyph unicode="&#xb7;" horiz-adv-x="391" d="M106 633v178h179v-178h-179z" />
<glyph unicode="&#xb8;" horiz-adv-x="500" d="M260 0h133v-98q-1 -142 -53.5 -203.5t-185.5 -63.5h-48v121h46q60 2 83.5 37t24.5 112v95z" />
<glyph unicode="&#xba;" horiz-adv-x="819" d="M78 358v351q0 83 19.5 148.5t51.5 107t75.5 69t89 39t95.5 11.5t95.5 -11t90 -38.5t76.5 -69t52 -107.5t20 -149v-351q0 -83 -20 -149t-52 -107.5t-76.5 -69t-90 -38.5t-95.5 -11t-95.5 11.5t-89 39t-75.5 69t-51.5 107t-19.5 148.5zM583 437v193q0 89 -13 151.5t-38 96 t-54.5 47.5t-67.5 14q-40 0 -69.5 -14t-54 -47.5t-37 -95.5t-12.5 -152v-193q1 -90 13 -151.5t36 -95.5t54 -48t71 -14q39 0 69 14.5t54.5 48t37 95.5t11.5 151z" />
<glyph unicode="&#xbb;" horiz-adv-x="836" d="M106 731v191l295 -254v-190l-295 -253v191l189 157zM437 731v191l294 -254v-190l-294 -253v191l189 157z" />
<glyph unicode="&#xbc;" horiz-adv-x="1317" d="M88 1491h194v-719h-125v604h-69v115zM829 1491h148l-654 -1491h-146zM928 720h127l-199 -469h189v293h126v-293h59v-115h-59v-136h-125v136h-320v125z" />
<glyph unicode="&#xbd;" horiz-adv-x="1337" d="M88 1491h194v-720h-125v605h-69v115zM829 1491h148l-654 -1491h-146zM1012 725h21q40 -1 77 -13t69 -37t51 -68.5t20 -100.5v-6q0 -42 -15 -78t-39.5 -62t-54.5 -49t-61.5 -44t-58.5 -42.5t-47 -49.5t-27 -60h296v-115h-456v62q0 48 14.5 88.5t38.5 68t54.5 53t62.5 44 t62.5 39.5t54 40.5t38 46.5t14.5 58q0 56 -29.5 83.5t-66.5 28.5h-8q-41 0 -73 -27.5t-42 -82.5h-124l1 8q6 56 28.5 98.5t56 66.5t69.5 36t74 14z" />
<glyph unicode="&#xbe;" horiz-adv-x="1473" d="M301 1500l23 -1q38 -1 73.5 -11t67.5 -31.5t51.5 -60t20.5 -89.5v-13q0 -52 -29 -92.5t-68 -52.5q45 -18 72.5 -62t28.5 -102v-14q-1 -50 -19 -88.5t-49 -62t-69 -35.5t-82 -12h-21q-38 0 -74.5 11.5t-69 35.5t-54.5 65.5t-27 95.5v5h117q8 -49 40 -73.5t72 -25.5h14 q39 0 68 23.5t30 65.5v8q0 49 -31.5 78.5t-82.5 29.5h-67v116h67q42 0 75 21.5t34 63.5l1 7q0 40 -29 62t-65 22h-13q-39 0 -69 -22.5t-39 -68.5h-119v5q7 67 42.5 114t81.5 67t98 21zM998 1491h148l-653 -1491h-148zM1084 720h127l-198 -469h189v293h125v-293h59v-115h-59 v-136h-125v136h-319v125z" />
<glyph unicode="&#xbf;" horiz-adv-x="1075" d="M674 979h-180v176h180v-176zM548 -347h-28q-59 0 -115.5 14t-111.5 47t-96 81.5t-66 124t-25 167.5v5q0 65 14 118t37 88.5t53 65t63 51.5t66 42.5t62.5 44t52.5 51t36.5 67.5t13.5 90h162q0 -65 -13 -118t-34 -89t-48.5 -65.5t-58 -51.5t-61 -42.5t-58 -44t-48.5 -51 t-34 -67t-13 -88.5q0 -66 20 -117.5t53 -81t71 -44.5t78 -15h15q40 0 77.5 15t71 44.5t58 79.5t34.5 115h193l-1 -11q-9 -90 -38.5 -163t-70.5 -120t-94 -79.5t-106.5 -47t-110.5 -15.5z" />
<glyph unicode="&#xc0;" horiz-adv-x="1122" d="M402 1939h197l123 -300h-131zM442 1491h236l357 -1491h-188l-103 412h-365l-104 -412h-188zM719 601l-158 669l-159 -669h317z" />
<glyph unicode="&#xc1;" horiz-adv-x="1122" d="M539 1936h196l-188 -299h-131zM442 1491h236l357 -1491h-188l-103 412h-365l-104 -412h-188zM719 601l-158 669l-159 -669h317z" />
<glyph unicode="&#xc2;" horiz-adv-x="1122" d="M473 1924h177l200 -303h-129l-159 173l-160 -174h-128zM442 1491h236l357 -1491h-188l-103 412h-365l-104 -412h-188zM719 601l-158 669l-159 -669h317z" />
<glyph unicode="&#xc3;" horiz-adv-x="1122" d="M743 1922h121q0 -282 -163 -282q-37 0 -70.5 17t-87.5 66q-33 32 -54 41t-46 8q-34 -1 -47 -33t-13 -100h-122q0 283 162 283q41 0 73 -18.5t86 -64.5q34 -35 58 -43t47 -4q32 2 44 32.5t12 97.5zM442 1491h236l357 -1491h-188l-103 412h-365l-104 -412h-188zM719 601 l-158 669l-159 -669h317z" />
<glyph unicode="&#xc4;" horiz-adv-x="1122" d="M341 1917h165v-165h-165v165zM619 1917h165v-165h-165v165zM442 1491h236l357 -1491h-188l-103 412h-365l-104 -412h-188zM719 601l-158 669l-159 -669h317z" />
<glyph unicode="&#xc5;" horiz-adv-x="1122" d="M562 1982q89 0 153 -64t64 -152q0 -91 -63.5 -154.5t-153.5 -63.5q-91 0 -154 63t-63 155q0 89 63 152.5t154 63.5zM562 1865q-42 0 -70.5 -29.5t-28.5 -69.5q0 -42 28.5 -71.5t70.5 -29.5q41 0 70.5 29.5t29.5 71.5q0 40 -29.5 69.5t-70.5 29.5zM442 1491h236l357 -1491 h-188l-103 412h-365l-104 -412h-188zM719 601l-158 669l-159 -669h317z" />
<glyph unicode="&#xc6;" horiz-adv-x="1288" d="M454 1491h752v-182h-457v-457h436v-181h-436v-489h457v-182h-645v412h-169l-104 -412h-187zM561 601v621l-145 -621h145z" />
<glyph unicode="&#xc7;" horiz-adv-x="1032" d="M114 498v496q0 115 25 205t66.5 147.5t99 95t117.5 53t127 15.5q64 0 121.5 -14t113 -49.5t96 -89.5t66.5 -139.5t30 -194.5v-39h-189l-1 34q-9 163 -72.5 236.5t-164.5 73.5q-52 0 -94 -18t-76.5 -57.5t-53 -109.5t-18.5 -165v-462q0 -96 18.5 -166t53 -109.5 t76.5 -57.5t94 -18q100 0 163.5 72.5t73.5 233.5l1 39h189v-37q-3 -111 -29.5 -197t-71 -141.5t-97.5 -88.5t-118 -48v-88q0 -145 -50.5 -208.5t-181.5 -66.5h-55v123h54q55 3 77 37t23 106v85l-32 4q-61 5 -114 24.5t-103 58.5t-85.5 95t-57 140.5t-21.5 189.5z" />
<glyph unicode="&#xc8;" horiz-adv-x="819" d="M252 1939h195l123 -300h-130zM116 1491h645v-182h-457v-457h436v-181h-436v-489h457v-182h-645v1491z" />
<glyph unicode="&#xc9;" horiz-adv-x="819" d="M374 1936h196l-188 -299h-130zM116 1491h645v-182h-457v-457h436v-181h-436v-489h457v-182h-645v1491z" />
<glyph unicode="&#xca;" horiz-adv-x="819" d="M322 1924h177l200 -303h-129l-159 173l-159 -174h-129zM116 1491h645v-182h-457v-457h436v-181h-436v-489h457v-182h-645v1491z" />
<glyph unicode="&#xcb;" horiz-adv-x="819" d="M190 1917h166v-165h-166v165zM467 1917h166v-165h-166v165zM116 1491h645v-182h-457v-457h436v-181h-436v-489h457v-182h-645v1491z" />
<glyph unicode="&#xcc;" horiz-adv-x="425" d="M53 1939h197l122 -300h-131zM116 0v1491h194v-1491h-194z" />
<glyph unicode="&#xcd;" horiz-adv-x="425" d="M176 1936h196l-188 -299h-131zM116 0v1491h194v-1491h-194z" />
<glyph unicode="&#xce;" horiz-adv-x="425" d="M124 1924h178l198 -303h-128l-160 173l-159 -174h-129zM116 0v1491h194v-1491h-194z" />
<glyph unicode="&#xcf;" horiz-adv-x="425" d="M-8 1752v165h165v-165h-165zM269 1752v165h166v-165h-166zM116 0v1491h194v-1491h-194z" />
<glyph unicode="&#xd0;" horiz-adv-x="1047" d="M116 1491h393q66 0 125 -14t116.5 -51t99 -93.5t66.5 -148t25 -208.5v-460q0 -118 -25 -209.5t-66.5 -148t-99 -93t-116.5 -51t-125 -14.5h-393v629h-96v183h96v679zM753 534v425q0 95 -19.5 165.5t-54.5 109.5t-77 57t-93 18h-205v-497h244v-183h-244v-447h205 q51 0 93 18t77 57.5t54.5 110t19.5 166.5z" />
<glyph unicode="&#xd1;" horiz-adv-x="1077" d="M721 1922h121q0 -282 -163 -282q-37 0 -70.5 17t-87.5 66q-33 32 -54.5 41t-46.5 8q-34 -1 -47 -33t-13 -100h-121q0 283 162 283q42 0 73.5 -18.5t86.5 -64.5q33 -35 57 -43t48 -4q31 2 43 32.5t12 97.5zM784 1491h182v-1491h-184l-489 1064v-1064h-183v1491h185 l489 -1064v1064z" />
<glyph unicode="&#xd2;" horiz-adv-x="1075" d="M380 1939h196l123 -300h-131zM102 498v496q0 115 25 205t66.5 147.5t98.5 95t117 53t128 15.5q66 0 126 -15t117.5 -52.5t99.5 -95t67.5 -148t25.5 -205.5v-496q0 -115 -25.5 -205.5t-67.5 -147.5t-99.5 -94.5t-117.5 -52.5t-126 -15q-68 0 -128 15.5t-117 53t-98.5 94.5 t-66.5 147.5t-25 204.5zM781 516v462q0 95 -19.5 165t-54.5 109.5t-77 57.5t-93 18q-53 0 -95 -18t-76 -57.5t-53 -109.5t-19 -165v-462q0 -96 19 -166t53 -109.5t76 -58t95 -18.5q51 0 93 18.5t77 57.5t54.5 109.5t19.5 166.5z" />
<glyph unicode="&#xd3;" horiz-adv-x="1075" d="M502 1936h197l-189 -299h-130zM102 498v496q0 115 25 205t66.5 147.5t98.5 95t117 53t128 15.5q66 0 126 -15t117.5 -52.5t99.5 -95t67.5 -148t25.5 -205.5v-496q0 -115 -25.5 -205.5t-67.5 -147.5t-99.5 -94.5t-117.5 -52.5t-126 -15q-68 0 -128 15.5t-117 53 t-98.5 94.5t-66.5 147.5t-25 204.5zM781 516v462q0 95 -19.5 165t-54.5 109.5t-77 57.5t-93 18q-53 0 -95 -18t-76 -57.5t-53 -109.5t-19 -165v-462q0 -96 19 -166t53 -109.5t76 -58t95 -18.5q51 0 93 18.5t77 57.5t54.5 109.5t19.5 166.5z" />
<glyph unicode="&#xd4;" horiz-adv-x="1075" d="M450 1924h177l200 -303h-129l-159 173l-159 -174h-129zM102 498v496q0 115 25 205t66.5 147.5t98.5 95t117 53t128 15.5q66 0 126 -15t117.5 -52.5t99.5 -95t67.5 -148t25.5 -205.5v-496q0 -115 -25.5 -205.5t-67.5 -147.5t-99.5 -94.5t-117.5 -52.5t-126 -15 q-68 0 -128 15.5t-117 53t-98.5 94.5t-66.5 147.5t-25 204.5zM781 516v462q0 95 -19.5 165t-54.5 109.5t-77 57.5t-93 18q-53 0 -95 -18t-76 -57.5t-53 -109.5t-19 -165v-462q0 -96 19 -166t53 -109.5t76 -58t95 -18.5q51 0 93 18.5t77 57.5t54.5 109.5t19.5 166.5z" />
<glyph unicode="&#xd5;" horiz-adv-x="1075" d="M722 1922h121q0 -282 -163 -282q-38 0 -71.5 17t-86.5 65q-33 32 -54 41.5t-46 8.5q-34 -1 -47 -32.5t-13 -99.5h-122q0 282 162 282q42 0 75 -19t85 -64q34 -34 57.5 -42.5t47.5 -4.5q31 2 43 32.5t12 97.5zM102 498v496q0 115 25 205t66.5 147.5t98.5 95t117 53 t128 15.5q66 0 126 -15t117.5 -52.5t99.5 -95t67.5 -148t25.5 -205.5v-496q0 -115 -25.5 -205.5t-67.5 -147.5t-99.5 -94.5t-117.5 -52.5t-126 -15q-68 0 -128 15.5t-117 53t-98.5 94.5t-66.5 147.5t-25 204.5zM781 516v462q0 95 -19.5 165t-54.5 109.5t-77 57.5t-93 18 q-53 0 -95 -18t-76 -57.5t-53 -109.5t-19 -165v-462q0 -96 19 -166t53 -109.5t76 -58t95 -18.5q51 0 93 18.5t77 57.5t54.5 109.5t19.5 166.5z" />
<glyph unicode="&#xd6;" horiz-adv-x="1075" d="M318 1752v165h166v-165h-166zM595 1752v165h166v-165h-166zM102 498v496q0 115 25 205t66.5 147.5t98.5 95t117 53t128 15.5q66 0 126 -15t117.5 -52.5t99.5 -95t67.5 -148t25.5 -205.5v-496q0 -115 -25.5 -205.5t-67.5 -147.5t-99.5 -94.5t-117.5 -52.5t-126 -15 q-68 0 -128 15.5t-117 53t-98.5 94.5t-66.5 147.5t-25 204.5zM781 516v462q0 95 -19.5 165t-54.5 109.5t-77 57.5t-93 18q-53 0 -95 -18t-76 -57.5t-53 -109.5t-19 -165v-462q0 -96 19 -166t53 -109.5t76 -58t95 -18.5q51 0 93 18.5t77 57.5t54.5 109.5t19.5 166.5z" />
<glyph unicode="&#xd7;" horiz-adv-x="1010" d="M510 747l267 266l129 -129l-266 -267l266 -267l-136 -136l-267 266l-267 -267l-130 130l267 267l-267 267l137 136z" />
<glyph unicode="&#xd8;" horiz-adv-x="1075" d="M931 1597l-83 -212q124 -133 124 -391v-496q0 -115 -25.5 -205.5t-67.5 -147.5t-100 -94.5t-117.5 -52.5t-125.5 -15q-122 0 -216 50l-54 -139h-122l82 211q-125 134 -125 393v496q0 115 25 205t66 147.5t98.5 95t117.5 53t128 15.5q121 0 218 -52l54 139h123zM294 978 v-462q0 -106 22 -178l367 939q-58 51 -146 51q-53 0 -95 -18t-76 -57.5t-53 -109.5t-19 -165zM781 516v462q0 102 -23 177l-367 -941q57 -50 146 -50q51 0 93 18.5t77 57.5t54.5 109.5t19.5 166.5z" />
<glyph unicode="&#xd9;" horiz-adv-x="1081" d="M382 1939h196l123 -300h-131zM304 508v983h-188v-1001q0 -113 24.5 -202t64.5 -145.5t96 -93t115.5 -51.5t126.5 -15q66 0 125 15t115.5 51.5t97.5 92.5t65.5 145t24.5 203v1001h-187v-983q0 -94 -19 -162.5t-53 -107t-76 -56.5t-93 -18q-52 0 -94 18t-75.5 56.5 t-51.5 107t-18 162.5z" />
<glyph unicode="&#xda;" horiz-adv-x="1081" d="M504 1936h197l-188 -299h-131zM304 508v983h-188v-1001q0 -113 24.5 -202t64.5 -145.5t96 -93t115.5 -51.5t126.5 -15q66 0 125 15t115.5 51.5t97.5 92.5t65.5 145t24.5 203v1001h-187v-983q0 -94 -19 -162.5t-53 -107t-76 -56.5t-93 -18q-52 0 -94 18t-75.5 56.5 t-51.5 107t-18 162.5z" />
<glyph unicode="&#xdb;" horiz-adv-x="1081" d="M452 1924h178l199 -303h-128l-159 173l-160 -174h-128zM304 506v985h-188v-1002q0 -113 24.5 -202t64.5 -145t96 -92.5t115.5 -51.5t126.5 -15q66 0 125 14.5t115.5 51t97.5 92.5t65.5 145t24.5 203v1002h-187v-985q0 -93 -19 -161.5t-53 -106.5t-76 -56t-93 -18 q-52 0 -94 18t-75.5 56.5t-51.5 106.5t-18 161z" />
<glyph unicode="&#xdc;" horiz-adv-x="1081" d="M320 1752v165h166v-165h-166zM598 1752v165h165v-165h-165zM304 508v983h-188v-1001q0 -113 24.5 -202t64.5 -145.5t96 -93t115.5 -51.5t126.5 -15q66 0 125 15t115.5 51.5t97.5 92.5t65.5 145t24.5 203v1001h-187v-983q0 -94 -19 -162.5t-53 -107t-76 -56.5t-93 -18 q-52 0 -94 18t-75.5 56.5t-51.5 107t-18 162.5z" />
<glyph unicode="&#xdd;" horiz-adv-x="1096" d="M513 1936h195l-188 -299h-130zM813 1491h198l-368 -890v-601h-194v600l-362 891h196l263 -676z" />
<glyph unicode="&#xde;" horiz-adv-x="979" d="M116 1502h188v-225h132q66 -2 126.5 -14.5t118 -42t99 -73.5t67 -111.5t25.5 -151.5v-73q0 -82 -25.5 -149t-67.5 -111t-99 -74t-117.5 -44t-126.5 -16h-132v-417h-188v1502zM688 838v19q0 55 -14 97.5t-37.5 69t-56.5 43.5t-67 23.5t-73 6.5h-136v-499h136q38 0 72 7 t67 24t57 43.5t38 69t14 96.5z" />
<glyph unicode="&#xdf;" horiz-adv-x="1136" d="M544 1499h50q71 0 135.5 -13.5t124.5 -44.5t104 -76t70.5 -113.5t28.5 -152.5v-32q0 -109 -53.5 -187.5t-136.5 -109.5q97 -30 155 -114.5t58 -207.5v-29q-1 -88 -25.5 -158.5t-66.5 -119t-101.5 -80.5t-127.5 -46.5t-147 -14.5h-215v183h215q132 0 203 59.5t72 169.5v28 q0 110 -71 173t-207 63h-92v183h80q121 0 192.5 53.5t72.5 157.5v26q0 107 -74 164.5t-194 57.5h-48q-55 -1 -101.5 -15t-84 -40.5t-59.5 -70.5t-23 -101v-1091h-193v1077q0 91 26 163t69 119.5t103 79t124.5 45.5t136.5 15z" />
<glyph unicode="&#xe0;" horiz-adv-x="829" d="M257 1512h196l123 -298h-130zM78 358v351q0 83 17 149t45 107.5t66.5 69t78.5 38.5t84 11q167 0 239 -137l19 118h117v-1065h-117l-18 124q-72 -141 -240 -141q-44 0 -84 11t-78.5 38.5t-66.5 69t-45 107.5t-17 149zM583 437v193q0 90 -12.5 152t-37 95.5t-54 47.5 t-68.5 14t-68.5 -14t-54.5 -47.5t-38 -95.5t-13 -152v-193q0 -89 13 -151t37.5 -95.5t54.5 -48t70 -14.5t70 14.5t54 48t36 95.5t11 151z" />
<glyph unicode="&#xe1;" horiz-adv-x="829" d="M380 1511h196l-188 -299h-131zM627 1065h117v-1065h-117l-18 124q-72 -141 -240 -141q-44 0 -84 11t-78.5 38.5t-67 69t-45.5 107.5t-17 149v351q0 83 17 149t45.5 107.5t67 69t78.5 38.5t84 11q167 0 239 -137zM237 630v-193q0 -89 13 -151t37.5 -95.5t54.5 -48 t70 -14.5t70 14.5t54 48t36 95.5t11 151v193q0 90 -12.5 152t-37 95.5t-54 47.5t-68.5 14t-68.5 -14t-54.5 -47.5t-38 -95.5t-13 -152z" />
<glyph unicode="&#xe2;" horiz-adv-x="829" d="M329 1498h176l200 -303h-129l-159 174l-159 -174h-129zM627 1065h117v-1065h-117l-18 124q-72 -141 -240 -141q-44 0 -84 11t-78.5 38.5t-67 69t-45.5 107.5t-17 149v351q0 83 17 149t45.5 107.5t67 69t78.5 38.5t84 11q167 0 239 -137zM237 630v-193q0 -89 13 -151 t37.5 -95.5t54.5 -48t70 -14.5t70 14.5t54 48t36 95.5t11 151v193q0 90 -12.5 152t-37 95.5t-54 47.5t-68.5 14t-68.5 -14t-54.5 -47.5t-38 -95.5t-13 -152z" />
<glyph unicode="&#xe3;" horiz-adv-x="829" d="M598 1498h122q0 -283 -163 -283q-38 0 -71 17t-87 66q-33 32 -54 41t-47 8q-33 -2 -46.5 -33.5t-13.5 -98.5h-120q0 283 162 283q41 0 73 -19t85 -66q34 -33 58.5 -41.5t47.5 -4.5q31 2 42.5 33t11.5 98zM627 1065h117v-1065h-117l-18 124q-72 -141 -240 -141 q-44 0 -84 11t-78.5 38.5t-66.5 69t-45 107.5t-17 149v351q0 83 17 149t45 107.5t66.5 69t78.5 38.5t84 11q167 0 239 -137zM237 630v-193q0 -89 13 -151t37.5 -95.5t54.5 -48t70 -14.5t70 14.5t54 48t36 95.5t11 151v193q0 90 -12.5 152t-37 95.5t-54 47.5t-68.5 14 t-68.5 -14t-54.5 -47.5t-38 -95.5t-13 -152z" />
<glyph unicode="&#xe4;" horiz-adv-x="829" d="M197 1326v165h165v-165h-165zM473 1326v165h166v-165h-166zM627 1065h117v-1065h-117l-18 124q-72 -141 -240 -141q-44 0 -84 11t-78.5 38.5t-67 69t-45.5 107.5t-17 149v351q0 83 17 149t45.5 107.5t67 69t78.5 38.5t84 11q167 0 239 -137zM237 630v-193q0 -89 13 -151 t37.5 -95.5t54.5 -48t70 -14.5t70 14.5t54 48t36 95.5t11 151v193q0 90 -12.5 152t-37 95.5t-54 47.5t-68.5 14t-68.5 -14t-54.5 -47.5t-38 -95.5t-13 -152z" />
<glyph unicode="&#xe5;" horiz-adv-x="829" d="M417 1557q89 0 153 -64t64 -152q0 -92 -63.5 -156t-153.5 -64q-91 0 -153.5 64t-62.5 156q0 88 62.5 152t153.5 64zM417 1439q-42 0 -70.5 -29t-28.5 -69q0 -43 28.5 -72.5t70.5 -29.5q41 0 70.5 29.5t29.5 72.5q0 40 -29.5 69t-70.5 29zM627 1065h117v-1065h-117 l-18 124q-72 -141 -240 -141q-44 0 -84 11t-78.5 38.5t-67 69t-45.5 107.5t-17 149v351q0 83 17 149t45.5 107.5t67 69t78.5 38.5t84 11q167 0 239 -137zM237 630v-193q0 -89 13 -151t37.5 -95.5t54.5 -48t70 -14.5t70 14.5t54 48t36 95.5t11 151v193q0 90 -12.5 152 t-37 95.5t-54 47.5t-68.5 14t-68.5 -14t-54.5 -47.5t-38 -95.5t-13 -152z" />
<glyph unicode="&#xe6;" horiz-adv-x="1380" d="M78 358l-1 351q0 83 17 149t45.5 107.5t67 69t78.5 38.5t84 11q167 0 239 -137l19 118h117v-91q76 110 227 110q50 0 95.5 -11t89.5 -38.5t76 -69t51.5 -107.5t19.5 -149v-240h-503v-80q0 -75 12.5 -127.5t37 -81t54 -40.5t68.5 -12q163 0 172 220h159q-1 -81 -21.5 -145 t-52.5 -104.5t-75.5 -67t-88.5 -37.5t-94 -11q-151 0 -227 110v-93h-117l-18 124q-72 -141 -240 -141q-44 0 -84 11t-78.5 38.5t-66.5 69t-45 107.5t-17 149zM582 437v193q0 90 -12.5 152t-36.5 95.5t-53.5 47.5t-68.5 14t-68.5 -14t-54.5 -47.5t-38 -95.5t-13 -152v-193 q0 -89 13 -151t37.5 -95.5t54.5 -48t70 -14.5t70 14t53.5 48t35.5 96t11 151zM1143 590v97q0 72 -14.5 123t-39.5 78t-53.5 39t-64.5 12q-37 0 -66.5 -11.5t-54 -39t-38 -78.5t-13.5 -124v-96h344z" />
<glyph unicode="&#xe7;" horiz-adv-x="813" d="M78 358l-1 351q0 83 19.5 148.5t51.5 107t76 69t89.5 39t95.5 11.5q49 0 93.5 -10.5t87.5 -37t75 -66t52.5 -102.5t21.5 -142v-44h-156q-5 257 -173 257q-40 0 -69.5 -14t-54 -47.5t-37 -95.5t-12.5 -152v-193q1 -90 13 -151.5t36 -95.5t54 -48t71 -14q37 0 66 12 t53.5 40t38 80t14.5 125h156v-41q-3 -135 -53.5 -217t-134.5 -117v-102q-1 -146 -53.5 -209t-187.5 -64h-46v121h46q60 2 83.5 36t24.5 111v89q-29 -5 -63 -1q-56 6 -103.5 28.5t-87.5 64.5t-63 112t-23 162z" />
<glyph unicode="&#xe8;" horiz-adv-x="815" d="M249 1512h196l123 -298h-131zM78 358l-1 351q0 83 19.5 148.5t51.5 107t76 69t89.5 39t95 11.5t95 -11t90 -38.5t76.5 -69t52 -107.5t20 -149v-240h-505v-80q0 -75 13 -127.5t37.5 -81t54 -40.5t69.5 -12q162 0 171 220h160q-2 -81 -22 -145t-52.5 -104.5t-76 -67 t-88.5 -37.5t-94 -11q-50 0 -95.5 11.5t-89 39t-75.5 69t-51.5 107t-19.5 148.5zM581 590v97q0 72 -14 123t-39.5 78t-54 39t-63.5 12q-38 0 -67 -11.5t-54 -39t-38.5 -78.5t-13.5 -124v-96h344z" />
<glyph unicode="&#xe9;" horiz-adv-x="815" d="M371 1511h197l-189 -299h-130zM78 358l-1 351q0 83 19.5 148.5t51.5 107t76 69t89.5 39t95 11.5t95 -11t90 -38.5t76.5 -69t52 -107.5t20 -149v-240h-505v-80q0 -75 13 -127.5t37.5 -81t54 -40.5t69.5 -12q162 0 171 220h160q-2 -81 -22 -145t-52.5 -104.5t-76 -67 t-88.5 -37.5t-94 -11q-50 0 -95.5 11.5t-89 39t-75.5 69t-51.5 107t-19.5 148.5zM581 590v97q0 72 -14 123t-39.5 78t-54 39t-63.5 12q-38 0 -67 -11.5t-54 -39t-38.5 -78.5t-13.5 -124v-96h344z" />
<glyph unicode="&#xea;" horiz-adv-x="815" d="M319 1498h177l200 -303h-129l-159 174l-159 -174h-129zM78 358l-1 351q0 83 19.5 148.5t51.5 107t76 69t89.5 39t95 11.5t95 -11t90 -38.5t76.5 -69t52 -107.5t20 -149v-240h-505v-80q0 -75 13 -127.5t37.5 -81t54 -40.5t69.5 -12q162 0 171 220h160q-2 -81 -22 -145 t-52.5 -104.5t-76 -67t-88.5 -37.5t-94 -11q-50 0 -95.5 11.5t-89 39t-75.5 69t-51.5 107t-19.5 148.5zM581 590v97q0 72 -14 123t-39.5 78t-54 39t-63.5 12q-38 0 -67 -11.5t-54 -39t-38.5 -78.5t-13.5 -124v-96h344z" />
<glyph unicode="&#xeb;" horiz-adv-x="815" d="M187 1326v165h166v-165h-166zM464 1326v165h166v-165h-166zM78 358l-1 351q0 83 19.5 148.5t51.5 107t76 69t89.5 39t95 11.5t95 -11t90 -38.5t76.5 -69t52 -107.5t20 -149v-240h-505v-80q0 -75 13 -127.5t37.5 -81t54 -40.5t69.5 -12q162 0 171 220h160q-2 -81 -22 -145 t-52.5 -104.5t-76 -67t-88.5 -37.5t-94 -11q-50 0 -95.5 11.5t-89 39t-75.5 69t-51.5 107t-19.5 148.5zM581 590v97q0 72 -14 123t-39.5 78t-54 39t-63.5 12q-38 0 -67 -11.5t-54 -39t-38.5 -78.5t-13.5 -124v-96h344z" />
<glyph unicode="&#xec;" horiz-adv-x="521" d="M108 1512h197l122 -298h-130zM220 0v1065h161v-1065h-161z" />
<glyph unicode="&#xed;" horiz-adv-x="512" d="M211 1511h197l-189 -299h-131zM140 0v1065h161v-1065h-161z" />
<glyph unicode="&#xee;" horiz-adv-x="565" d="M196 1498h176l200 -303h-129l-159 174l-159 -174h-129zM207 0v1065h159v-1065h-159z" />
<glyph unicode="&#xef;" horiz-adv-x="600" d="M80 1326v165h166v-165h-166zM358 1326v165h165v-165h-165zM227 0v1065h160v-1065h-160z" />
<glyph unicode="&#xf0;" horiz-adv-x="979" d="M873 1368l-157 -93q25 -56 27 -134v-783q-2 -81 -21.5 -146t-51.5 -107t-75 -70t-88.5 -40t-95.5 -12t-95.5 11t-90 38.5t-76.5 69t-51.5 107.5t-19.5 149v351q0 83 19.5 149t51.5 107.5t76.5 69t90 38.5t95.5 11q53 0 99 -26.5t73 -76.5v135q0 71 -13 121t-37.5 77 t-54 38.5t-67.5 11.5q-125 0 -160 -148h-158l3 20q8 60 30.5 108t53 78.5t70 50.5t79 28.5t82.5 8.5q156 0 244 -103l142 84zM583 437v193q0 309 -172 309q-38 0 -67.5 -14t-54.5 -47.5t-38.5 -96t-13.5 -151.5v-193q0 -89 12.5 -151t37 -95.5t54 -48t69.5 -14.5q41 0 71 14 t53.5 48t36 95.5t12.5 151.5z" />
<glyph unicode="&#xf1;" horiz-adv-x="840" d="M601 1498h122q0 -283 -162 -283q-39 0 -72.5 17t-87.5 66q-33 32 -53.5 41t-45.5 8q-34 -2 -47.5 -33.5t-13.5 -98.5h-121q0 283 163 283q41 0 73 -19t85 -66q34 -33 58 -41.5t47 -4.5q31 2 43 33t12 98zM208 1065l21 -124q37 72 99.5 107.5t141.5 35.5q44 0 83.5 -11 t77.5 -38.5t65.5 -69t44 -107.5t16.5 -149v-709h-159v630q0 90 -13 152t-38 95.5t-54.5 47.5t-68.5 14q-38 0 -67.5 -12.5t-54.5 -41.5t-38 -83.5t-13 -131.5v-670h-159v1065h116z" />
<glyph unicode="&#xf2;" horiz-adv-x="819" d="M252 1512h196l123 -298h-131zM78 358v351q0 83 19.5 148.5t51.5 107t75.5 69t89 39t95.5 11.5t95.5 -11t90 -38.5t76.5 -69t52 -107.5t20 -149v-351q0 -83 -20 -149t-52 -107.5t-76.5 -69t-90 -38.5t-95.5 -11t-95.5 11.5t-89 39t-75.5 69t-51.5 107t-19.5 148.5z M583 437v193q0 89 -13 151.5t-38 96t-54.5 47.5t-67.5 14q-40 0 -69.5 -14t-54 -47.5t-37 -95.5t-12.5 -152v-193q1 -90 13 -151.5t36 -95.5t54 -48t71 -14q39 0 69 14.5t54.5 48t37 95.5t11.5 151z" />
<glyph unicode="&#xf3;" horiz-adv-x="819" d="M374 1511h197l-188 -299h-131zM78 358v351q0 83 19.5 148.5t51.5 107t75.5 69t89 39t95.5 11.5t95.5 -11t90 -38.5t76.5 -69t52 -107.5t20 -149v-351q0 -83 -20 -149t-52 -107.5t-76.5 -69t-90 -38.5t-95.5 -11t-95.5 11.5t-89 39t-75.5 69t-51.5 107t-19.5 148.5z M583 437v193q0 89 -13 151.5t-38 96t-54.5 47.5t-67.5 14q-40 0 -69.5 -14t-54 -47.5t-37 -95.5t-12.5 -152v-193q1 -90 13 -151.5t36 -95.5t54 -48t71 -14q39 0 69 14.5t54.5 48t37 95.5t11.5 151z" />
<glyph unicode="&#xf4;" horiz-adv-x="819" d="M322 1498h177l200 -303h-129l-159 174l-159 -174h-129zM77 358v351q0 83 19.5 148.5t51.5 107t76 69t89.5 39t95.5 11.5t95.5 -11t90 -38.5t76.5 -69t52 -107.5t20 -149v-351q0 -83 -20 -149t-52 -107.5t-76.5 -69t-90 -38.5t-95.5 -11t-95.5 11.5t-89.5 39t-76 69 t-51.5 107t-19.5 148.5zM583 437v193q0 89 -13 151.5t-38 96t-54.5 47.5t-67.5 14q-40 0 -69.5 -14t-54 -47.5t-37 -95.5t-12.5 -152v-193q1 -90 13 -151.5t36 -95.5t54 -48t71 -14q39 0 69 14.5t54.5 48t37 95.5t11.5 151z" />
<glyph unicode="&#xf5;" horiz-adv-x="819" d="M592 1498h121q0 -283 -163 -283q-38 0 -71 17t-87 66q-33 32 -54 41t-46 8q-34 -2 -47 -33.5t-13 -98.5h-122q0 283 162 283q42 0 74.5 -19.5t85.5 -65.5q34 -33 57.5 -41.5t47.5 -4.5q31 2 43 33t12 98zM78 358v351q0 83 19.5 148.5t51.5 107t75.5 69t89 39t95.5 11.5 t95.5 -11t90 -38.5t76.5 -69t52 -107.5t20 -149v-351q0 -83 -20 -149t-52 -107.5t-76.5 -69t-90 -38.5t-95.5 -11t-95.5 11.5t-89 39t-75.5 69t-51.5 107t-19.5 148.5zM583 437v193q0 89 -13 151.5t-38 96t-54.5 47.5t-67.5 14q-40 0 -69.5 -14t-54 -47.5t-37 -95.5 t-12.5 -152v-193q1 -90 13 -151.5t36 -95.5t54 -48t71 -14q39 0 69 14.5t54.5 48t37 95.5t11.5 151z" />
<glyph unicode="&#xf6;" horiz-adv-x="819" d="M190 1326v165h166v-165h-166zM468 1326v165h165v-165h-165zM78 358v351q0 83 19.5 148.5t51.5 107t75.5 69t89 39t95.5 11.5t95.5 -11t90 -38.5t76.5 -69t52 -107.5t20 -149v-351q0 -83 -20 -149t-52 -107.5t-76.5 -69t-90 -38.5t-95.5 -11t-95.5 11.5t-89 39t-75.5 69 t-51.5 107t-19.5 148.5zM583 437v193q0 89 -13 151.5t-38 96t-54.5 47.5t-67.5 14q-40 0 -69.5 -14t-54 -47.5t-37 -95.5t-12.5 -152v-193q1 -90 13 -151.5t36 -95.5t54 -48t71 -14q39 0 69 14.5t54.5 48t37 95.5t11.5 151z" />
<glyph unicode="&#xf7;" horiz-adv-x="1160" d="M488 843v178h179v-178h-179zM106 649h950v-184h-950v184zM489 89v178h179v-178h-179z" />
<glyph unicode="&#xf8;" horiz-adv-x="868" d="M743 1171l-68 -174q100 -98 100 -288v-351q0 -83 -20 -149t-52 -107.5t-76.5 -69t-90 -38.5t-95.5 -11q-81 0 -149 31l-47 -120h-97l66 170q-105 99 -105 294v351q0 83 19.5 148.5t51.5 107t76 69t89.5 39t95.5 11.5q90 0 156 -33l47 120h99zM268 630v-193 q0 -110 20 -181l252 648q-40 35 -99 35q-40 0 -69.5 -14t-53.5 -47.5t-37 -95.5t-13 -152zM597 799l-250 -643q35 -28 95 -28q39 0 69 14.5t54.5 48t37 95.5t12.5 151v193q0 103 -18 169z" />
<glyph unicode="&#xf9;" d="M258 1512h196l123 -298h-131zM590 1065h160v-1065h-117l-20 124q-37 -72 -100 -107.5t-142 -35.5q-44 0 -83.5 11t-77.5 38.5t-65.5 69t-44.5 107.5t-17 149v709h160v-630q0 -90 13.5 -152t38 -95.5t54 -47.5t68.5 -14q38 0 67.5 12.5t54 41.5t38 83.5t13.5 131.5v670z " />
<glyph unicode="&#xfa;" d="M381 1511h196l-189 -299h-130zM590 1065h160v-1065h-117l-20 124q-37 -72 -100 -107.5t-142 -35.5q-44 0 -83.5 11t-77.5 38.5t-65.5 69t-44.5 107.5t-17 149v709h160v-630q0 -90 13.5 -152t38 -95.5t54 -47.5t68.5 -14q38 0 67.5 12.5t54 41.5t38 83.5t13.5 131.5v670z " />
<glyph unicode="&#xfb;" d="M329 1498h176l200 -303h-129l-159 174l-159 -174h-129zM590 1065h159v-1065h-116l-20 124q-37 -72 -100 -107.5t-142 -35.5q-44 0 -83.5 11t-77.5 38.5t-65.5 69t-44.5 107.5t-17 149v709h160v-630q0 -90 13.5 -152t38 -95.5t54 -47.5t68.5 -14q38 0 67.5 12.5t54 41.5 t38 83.5t13.5 131.5v670z" />
<glyph unicode="&#xfc;" d="M197 1326v165h165v-165h-165zM473 1326v165h167v-165h-167zM590 1065h160v-1065h-117l-20 124q-37 -72 -100 -107.5t-142 -35.5q-44 0 -83.5 11t-77.5 38.5t-65.5 69t-44.5 107.5t-17 149v709h160v-630q0 -90 13.5 -152t38 -95.5t54 -47.5t68.5 -14q38 0 67.5 12.5 t54 41.5t38 83.5t13.5 131.5v670z" />
<glyph unicode="&#xfd;" horiz-adv-x="802" d="M365 1511h197l-189 -299h-131zM575 1066h159v-1078q-2 -78 -22.5 -140t-52.5 -101.5t-75 -65.5t-87.5 -36.5t-92.5 -10.5q-42 0 -81 8t-78.5 26.5t-70.5 47t-55.5 73t-35.5 100.5h165q36 -111 154 -111q39 0 68.5 12t54 38.5t37.5 75.5t13 119v101q-34 -63 -91 -93.5 t-128 -30.5q-44 0 -83.5 11t-77.5 38.5t-65.5 69t-44 107t-16.5 148.5v691h159v-612q0 -89 13 -151.5t37.5 -95.5t54.5 -47t68 -14q40 0 69.5 14t54 47t37.5 95.5t13 151.5v613z" />
<glyph unicode="&#xfe;" d="M250 1491v-531q67 123 218 123q44 0 83.5 -11t77.5 -38.5t66 -69t44.5 -107.5t16.5 -149v-351q0 -83 -16.5 -149t-44.5 -107.5t-66 -69t-77.5 -39t-83.5 -11.5q-70 0 -127 30t-91 91v-449h-160v1838h160zM596 435v194q0 89 -13 151t-37.5 95.5t-54.5 48t-70 14.5t-70 -14 t-53.5 -48t-35.5 -96t-11 -151v-194q0 -90 12.5 -152t36.5 -95t53.5 -47t68.5 -14t68.5 14t54.5 47t38 95t13 152z" />
<glyph unicode="&#xff;" horiz-adv-x="802" d="M181 1326v165h166v-165h-166zM459 1326v165h165v-165h-165zM575 1066h159v-1078q-2 -78 -22.5 -140t-52.5 -101.5t-75 -65.5t-87.5 -36.5t-92.5 -10.5q-42 0 -81 8t-78.5 26.5t-70.5 47t-55.5 73t-35.5 100.5h165q36 -111 154 -111q39 0 68.5 12t54 38.5t37.5 75.5 t13 119v101q-34 -63 -91 -93.5t-128 -30.5q-44 0 -83.5 11t-77.5 38.5t-65.5 69t-44 107t-16.5 148.5v691h159v-612q0 -89 13 -151.5t37.5 -95.5t54.5 -47t68 -14q40 0 69.5 14t54 47t37.5 95.5t13 151.5v613z" />
<glyph unicode="&#x100;" horiz-adv-x="1122" d="M263 1917h599v-145h-599v145zM442 1491h236l357 -1491h-188l-103 412h-365l-104 -412h-188zM719 601l-158 669l-159 -669h317z" />
<glyph unicode="&#x101;" horiz-adv-x="829" d="M118 1491h599v-145h-599v145zM627 1065h117v-1065h-117l-18 124q-72 -141 -240 -141q-44 0 -84 11t-78.5 38.5t-67 69t-45.5 107.5t-17 149v351q0 83 17 149t45.5 107.5t67 69t78.5 38.5t84 11q167 0 239 -137zM237 630v-193q0 -89 13 -151t37.5 -95.5t54.5 -48t70 -14.5 t70 14.5t54 48t36 95.5t11 151v193q0 90 -12.5 152t-37 95.5t-54 47.5t-68.5 14t-68.5 -14t-54.5 -47.5t-38 -95.5t-13 -152z" />
<glyph unicode="&#x102;" horiz-adv-x="1122" d="M695 1917h140q-12 -102 -90 -170.5t-183 -68.5t-183 68.5t-90 170.5h139q12 -44 49 -72.5t85 -28.5q47 0 84 28t49 73zM442 1491h236l357 -1491h-188l-103 412h-365l-104 -412h-188zM719 601l-158 669l-159 -669h317z" />
<glyph unicode="&#x103;" horiz-adv-x="829" d="M550 1491h140q-12 -101 -90 -170.5t-183 -69.5t-183 69.5t-89 170.5h139q12 -44 49 -73t84 -29q48 0 84.5 29t48.5 73zM78 358l-1 351q0 83 17 149t45.5 107.5t67 69t78.5 38.5t84 11q167 0 239 -137l19 118h117v-1065h-117l-18 124q-72 -141 -240 -141q-44 0 -84 11 t-78.5 38.5t-66.5 69t-45 107.5t-17 149zM583 437v193q0 90 -12.5 152t-37 95.5t-54 47.5t-68.5 14t-68.5 -14t-54.5 -47.5t-38 -95.5t-13 -152v-193q0 -89 13 -151t37.5 -95.5t54.5 -48t70 -14.5t70 14.5t54 48t36 95.5t11 151z" />
<glyph unicode="&#x104;" horiz-adv-x="1122" d="M442 1491h236l357 -1491q-28 -24 -42 -37t-34 -37t-29 -47t-8 -49q2 -38 25.5 -55t67.5 -18l32 -1v-120h-55q-205 11 -204 164q0 25 7.5 49.5t15 40.5t25.5 37t25 28t29 26l22 19h-65l-103 412h-365l-104 -412h-188zM719 601l-158 669l-159 -669h317z" />
<glyph unicode="&#x105;" horiz-adv-x="829" d="M78 358v351q0 83 17 149t45 107.5t66.5 69t78.5 38.5t84 11q167 0 239 -137l19 118h116v-1065q-53 -44 -82.5 -84.5t-26.5 -87.5q3 -39 28 -55.5t71 -16.5h25v-121h-25q-227 1 -234 153q-1 36 10 68.5t34 60t38 42.5t40 36q4 3 6 5l-18 124q-72 -141 -240 -141 q-44 0 -84 11t-78.5 38.5t-66.5 69t-45 107.5t-17 149zM583 437v193q0 90 -12.5 152t-37 95.5t-54 47.5t-68.5 14t-68.5 -14t-54.5 -47.5t-38 -95.5t-13 -152v-193q0 -89 13 -151t37.5 -95.5t54.5 -48t70 -14.5t70 14.5t54 48t36 95.5t11 151z" />
<glyph unicode="&#x106;" horiz-adv-x="1032" d="M479 1936h197l-188 -299h-131zM114 498v496q0 115 25 205t66.5 147.5t99 95t117.5 53t127 15.5q64 0 121.5 -14.5t113 -50t96 -89.5t66.5 -139.5t30 -194.5v-38h-189l-1 34q-9 163 -72.5 236.5t-164.5 73.5q-52 0 -94 -18t-76.5 -57.5t-53 -109.5t-18.5 -165v-462 q0 -96 18.5 -166t53 -109.5t76.5 -58t94 -18.5q100 0 163.5 73t73.5 234l1 39h189v-37q-3 -109 -29 -194.5t-66.5 -140t-96 -90.5t-113.5 -50.5t-122 -14.5q-67 0 -127 15.5t-117.5 53t-99 94.5t-66.5 147.5t-25 204.5z" />
<glyph unicode="&#x107;" horiz-adv-x="813" d="M370 1511h197l-188 -299h-131zM78 358v351q0 83 19.5 148.5t51.5 107t75.5 69t89 39t95.5 11.5q49 0 93.5 -10.5t87.5 -37t75 -66t52.5 -102.5t21.5 -143v-43h-156q-5 257 -173 257q-40 0 -69.5 -14t-54 -47.5t-37 -95.5t-12.5 -152v-193q1 -90 13 -151.5t36 -95.5 t54 -48t71 -14q37 0 66 12t53.5 40t38 80t14.5 125h156v-41q-1 -80 -21.5 -143.5t-52 -103.5t-75 -66t-88 -37t-93.5 -11q-50 0 -95.5 11.5t-89 39t-75.5 69t-51.5 107t-19.5 148.5z" />
<glyph unicode="&#x10a;" horiz-adv-x="1032" d="M435 1918h165v-165h-165v165zM114 498v496q0 115 25 205t66.5 147.5t99 95t117.5 53t127 15.5q64 0 121.5 -14.5t113 -50t96 -89.5t66.5 -139.5t30 -194.5v-38h-189l-1 34q-9 163 -72.5 236.5t-164.5 73.5q-52 0 -94 -18t-76.5 -57.5t-53 -109.5t-18.5 -165v-462 q0 -96 18.5 -166t53 -109.5t76.5 -58t94 -18.5q100 0 163.5 73t73.5 234l1 39h189v-37q-3 -109 -29 -194.5t-66.5 -140t-96 -90.5t-113.5 -50.5t-122 -14.5q-67 0 -127 15.5t-117.5 53t-99 94.5t-66.5 147.5t-25 204.5z" />
<glyph unicode="&#x10b;" horiz-adv-x="813" d="M324 1491h167v-164h-167v164zM78 358v351q0 83 19.5 148.5t51.5 107t75.5 69t89 39t95.5 11.5q49 0 93.5 -10.5t87.5 -37t75 -66t52.5 -102.5t21.5 -143v-43h-156q-5 257 -173 257q-40 0 -69.5 -14t-54 -47.5t-37 -95.5t-12.5 -152v-193q1 -90 13 -151.5t36 -95.5t54 -48 t71 -14q37 0 66 12t53.5 40t38 80t14.5 125h156v-41q-1 -80 -21.5 -143.5t-52 -103.5t-75 -66t-88 -37t-93.5 -11q-50 0 -95.5 11.5t-89 39t-75.5 69t-51.5 107t-19.5 148.5z" />
<glyph unicode="&#x10c;" horiz-adv-x="1032" d="M676 1923h129l-200 -302h-177l-199 303h129l159 -174zM114 498v496q0 115 25 205t66.5 147.5t99 95t117.5 53t127 15.5q64 0 121.5 -14.5t113 -50t96 -89.5t66.5 -139.5t30 -194.5v-38h-189l-1 34q-9 163 -72.5 236.5t-164.5 73.5q-52 0 -94 -18t-76.5 -57.5t-53 -109.5 t-18.5 -165v-462q0 -96 18.5 -166t53 -109.5t76.5 -58t94 -18.5q100 0 163.5 73t73.5 234l1 39h189v-37q-3 -109 -29 -194.5t-66.5 -140t-96 -90.5t-113.5 -50.5t-122 -14.5q-67 0 -127 15.5t-117.5 53t-99 94.5t-66.5 147.5t-25 204.5z" />
<glyph unicode="&#x10d;" horiz-adv-x="813" d="M567 1498h128l-199 -303h-178l-198 303h128l160 -174zM78 358v351q0 83 19.5 148.5t51.5 107t75.5 69t89 39t95.5 11.5q49 0 93.5 -10.5t87.5 -37t75 -66t52.5 -102.5t21.5 -143v-43h-156q-5 257 -173 257q-40 0 -69.5 -14t-54 -47.5t-37 -95.5t-12.5 -152v-193 q1 -90 13 -151.5t36 -95.5t54 -48t71 -14q37 0 66 12t53.5 40t38 80t14.5 125h156v-41q-1 -80 -21.5 -143.5t-52 -103.5t-75 -66t-88 -37t-93.5 -11q-50 0 -95.5 11.5t-89 39t-75.5 69t-51.5 107t-19.5 148.5z" />
<glyph unicode="&#x10e;" horiz-adv-x="1047" d="M614 1620h-177l-200 304h129l159 -174l159 173h129zM116 1491h393q66 0 125 -14t116.5 -51t99 -93.5t66.5 -148t25 -208.5v-460q0 -118 -25 -209.5t-66.5 -148t-99 -93t-116.5 -51t-125 -14.5h-393v1491zM753 534v425q0 95 -19.5 165.5t-54.5 109.5t-77 57t-93 18h-205 v-1127h205q51 0 93 18t77 57.5t54.5 110t19.5 166.5z" />
<glyph unicode="&#x10f;" horiz-adv-x="1104" d="M583 964v527h161v-1491h-117l-19 126q-37 -73 -100 -108t-143 -35q-44 0 -83.5 11t-77.5 38.5t-65.5 69t-44 107.5t-16.5 149v351q0 83 16.5 149t44 107.5t65.5 69t77.5 38.5t83.5 11q70 0 127 -29.5t91 -90.5zM839 1491h179v-177l-67 -176h-67l31 176h-76v177zM237 630 v-193q0 -89 13 -151t37.5 -95.5t54.5 -48t70 -14.5t70 14.5t54 48t36 95.5t11 151v193q0 90 -12.5 152t-37 95.5t-54 47.5t-68.5 14t-68.5 -14t-54.5 -47.5t-38 -95.5t-13 -152z" />
<glyph unicode="&#x110;" horiz-adv-x="1047" d="M133 1491h392q67 0 126 -14t116.5 -51t98.5 -93.5t66.5 -148t25.5 -208.5v-460q0 -118 -25.5 -209.5t-66.5 -148t-98.5 -93t-116.5 -51t-126 -14.5h-392v662h-121v145h121v684zM771 534v425q0 95 -20 165.5t-55 109.5t-77.5 57t-93.5 18h-205v-501h194v-146h-194v-480 h205q51 0 93.5 18t77.5 57.5t55 110t20 166.5z" />
<glyph unicode="&#x111;" horiz-adv-x="872" d="M896 1364v-143h-152v-1221h-117l-19 126q-37 -73 -100 -108t-143 -35q-44 0 -83.5 11t-77.5 38.5t-65.5 69t-44 107.5t-16.5 149v351q0 83 16.5 149t44 107.5t65.5 69t77.5 38.5t83.5 11q70 0 127 -29.5t91 -90.5v257h-177v143h177v127h161v-127h152zM237 630v-193 q0 -89 13 -151t37.5 -95.5t54.5 -48t70 -14.5t70 14.5t54 48t36 95.5t11 151v193q0 90 -12.5 152t-37 95.5t-54 47.5t-68.5 14t-68.5 -14t-54.5 -47.5t-38 -95.5t-13 -152z" />
<glyph unicode="&#x112;" horiz-adv-x="819" d="M112 1917h599v-145h-599v145zM116 1491h645v-182h-457v-457h436v-181h-436v-489h457v-182h-645v1491z" />
<glyph unicode="&#x113;" horiz-adv-x="815" d="M109 1491h599v-145h-599v145zM78 358l-1 351q0 83 19.5 148.5t51.5 107t76 69t89.5 39t95 11.5t95 -11t90 -38.5t76.5 -69t52 -107.5t20 -149v-240h-505v-80q0 -75 13 -127.5t37.5 -81t54 -40.5t69.5 -12q162 0 171 220h160q-2 -81 -22 -145t-52.5 -104.5t-76 -67 t-88.5 -37.5t-94 -11q-50 0 -95.5 11.5t-89 39t-75.5 69t-51.5 107t-19.5 148.5zM581 590v97q0 72 -14 123t-39.5 78t-54 39t-63.5 12q-38 0 -67 -11.5t-54 -39t-38.5 -78.5t-13.5 -124v-96h344z" />
<glyph unicode="&#x116;" horiz-adv-x="819" d="M329 1918h165v-165h-165v165zM116 1491h645v-182h-457v-457h436v-181h-436v-489h457v-182h-645v1491z" />
<glyph unicode="&#x117;" horiz-adv-x="815" d="M326 1327v164h165v-164h-165zM78 358l-1 351q0 83 19.5 148.5t51.5 107t76 69t89.5 39t95 11.5t95 -11t90 -38.5t76.5 -69t52 -107.5t20 -149v-240h-505v-80q0 -75 13 -127.5t37.5 -81t54 -40.5t69.5 -12q162 0 171 220h160q-2 -81 -22 -145t-52.5 -104.5t-76 -67 t-88.5 -37.5t-94 -11q-50 0 -95.5 11.5t-89 39t-75.5 69t-51.5 107t-19.5 148.5zM581 590v97q0 72 -14 123t-39.5 78t-54 39t-63.5 12q-38 0 -67 -11.5t-54 -39t-38.5 -78.5t-13.5 -124v-96h344z" />
<glyph unicode="&#x118;" horiz-adv-x="819" d="M116 1491h645v-182h-457v-457h436v-181h-436v-489h457v-182h-77q-25 -22 -39.5 -36.5t-33 -37t-26.5 -45t-7 -46.5q2 -40 26 -57.5t70 -18.5h28v-120h-31q-217 3 -228 150q-2 30 6.5 59t18.5 48t31 43.5t30 33t31 27.5h-444v1491z" />
<glyph unicode="&#x119;" horiz-adv-x="815" d="M78 358v351q0 83 19.5 148.5t51.5 107t75.5 69t89 39t95 11.5t95 -11t90 -38.5t76.5 -69t52 -107.5t20 -149v-240h-505v-80q0 -75 13 -127.5t37 -81t54 -40.5t69 -12q163 0 172 220h160q-3 -235 -160 -320l-13 -7q-27 -22 -39.5 -33.5t-32 -33t-27.5 -43t-7 -45.5 q1 -40 25.5 -57t69.5 -19h30v-121h-33q-216 3 -227 150q-2 28 5.5 53.5t23 47t28 35t32.5 30.5q-24 -1 -44 1q-46 4 -87 17.5t-80 42.5t-67 70t-44.5 103t-16.5 139zM581 591v96q0 72 -14 123t-39.5 78t-54.5 39t-64 12q-37 0 -66 -11.5t-54 -39t-38.5 -78.5t-13.5 -124v-95 h344z" />
<glyph unicode="&#x11a;" horiz-adv-x="819" d="M570 1923h129l-200 -302h-177l-199 303h129l159 -174zM116 1491h645v-182h-457v-457h436v-181h-436v-489h457v-182h-645v1491z" />
<glyph unicode="&#x11b;" horiz-adv-x="815" d="M567 1498h129l-200 -303h-177l-199 303h129l159 -174zM78 358l-1 351q0 83 19.5 148.5t51.5 107t76 69t89.5 39t95 11.5t95 -11t90 -38.5t76.5 -69t52 -107.5t20 -149v-240h-505v-80q0 -75 13 -127.5t37.5 -81t54 -40.5t69.5 -12q162 0 171 220h160q-2 -81 -22 -145 t-52.5 -104.5t-76 -67t-88.5 -37.5t-94 -11q-50 0 -95.5 11.5t-89 39t-75.5 69t-51.5 107t-19.5 148.5zM581 590v97q0 72 -14 123t-39.5 78t-54 39t-63.5 12q-38 0 -67 -11.5t-54 -39t-38.5 -78.5t-13.5 -124v-96h344z" />
<glyph unicode="&#x11e;" horiz-adv-x="1083" d="M675 1917h140q-11 -102 -89.5 -170.5t-183.5 -68.5t-183 68.5t-90 170.5h141q12 -44 48.5 -72.5t83.5 -28.5q48 0 84.5 28t48.5 73zM114 498v496q0 115 24.5 205t65 147.5t97 95t116.5 53t127 15.5q65 0 123.5 -15t114.5 -51.5t97 -92t66.5 -144t26.5 -200.5v-22h-183v14 q-2 90 -22.5 155.5t-55 102.5t-76 54t-91.5 17q-52 0 -94.5 -18t-76.5 -57.5t-52.5 -109.5t-18.5 -165v-462q0 -96 18.5 -166t52.5 -109.5t76.5 -58t94.5 -18.5q51 0 93 17.5t77.5 56t55 108t19.5 164.5v122h-234v182h418v-316q0 -115 -24.5 -205.5t-65.5 -147.5t-98 -94 t-116 -52.5t-125 -15.5q-67 0 -127 15.5t-116.5 53t-97 95t-65 147.5t-24.5 204z" />
<glyph unicode="&#x11f;" d="M550 1491h140q-12 -101 -90 -170.5t-183 -69.5t-183 69.5t-89 170.5h139q12 -44 49 -73t84 -29q48 0 84.5 29t48.5 73zM78 374l-1 335q0 83 17 149t44.5 107.5t65.5 69t77.5 38.5t83.5 11q79 0 142.5 -34.5t100.5 -105.5l19 122h117v-1062q-1 -81 -21 -146t-52 -106 t-75.5 -68.5t-89 -38.5t-94.5 -11q-53 0 -101.5 13t-93.5 41.5t-78 79.5t-46 121h163q37 -111 155 -111q38 0 67.5 12t54 38.5t37.5 75.5t13 119v100q-67 -123 -218 -123q-44 0 -83.5 11t-77.5 38.5t-65.5 69t-44 107t-16.5 148.5zM583 446v184q1 90 -11.5 152t-37 95.5 t-54 47.5t-69 14t-69 -14t-54 -47.5t-38 -96t-13.5 -151.5v-184q0 -89 13 -151t37.5 -95.5t54 -48t69.5 -14.5t69.5 14.5t53.5 48t36.5 95.5t12.5 151z" />
<glyph unicode="&#x120;" horiz-adv-x="1083" d="M460 1753v165h166v-165h-166zM114 498v496q0 115 25 205t65.5 147.5t97 95t116.5 53t127 15.5q65 0 123.5 -15t114.5 -51.5t96.5 -92t66 -144t26.5 -200.5v-22h-183v14q-2 90 -22.5 155.5t-55 102.5t-75.5 54t-91 17q-52 0 -94.5 -18t-77 -57.5t-53 -109.5t-18.5 -165 v-462q0 -96 18.5 -166t53 -109.5t77 -58t94.5 -18.5q51 0 93 17.5t77 56t54.5 107.5t19.5 165v122h-234v182h418v-316q0 -115 -24.5 -205.5t-65.5 -147.5t-97.5 -94t-115.5 -52.5t-125 -15.5q-67 0 -127 15.5t-116.5 53t-97 95t-65.5 147.5t-25 204z" />
<glyph unicode="&#x121;" d="M335 1491h165v-164h-165v164zM78 374l-1 335q0 83 17 149t44.5 107.5t65.5 69t77.5 38.5t83.5 11q79 0 142.5 -34.5t100.5 -105.5l19 122h117v-1063q-1 -81 -21 -146t-52 -106t-75.5 -68t-89 -38t-94.5 -11q-53 0 -101.5 13t-93.5 41.5t-78 79.5t-46 121h163 q37 -111 155 -111q38 0 67.5 11.5t54 37.5t37.5 74.5t13 117.5v104q-67 -123 -218 -123q-44 0 -83.5 11t-77.5 38.5t-65.5 69t-44 107t-16.5 148.5zM583 446v184q1 90 -11.5 152t-37 95.5t-54 47.5t-69 14t-69 -14t-54 -47.5t-38 -96t-13.5 -151.5v-184q0 -89 13 -151 t37.5 -95.5t54 -48t69.5 -14.5t69.5 14.5t53.5 48t36.5 95.5t12.5 151z" />
<glyph unicode="&#x122;" horiz-adv-x="1083" d="M114 498v496q0 115 25 205t65.5 147.5t97 95t116.5 53t127 15.5q65 0 123.5 -15t114.5 -51.5t96.5 -92t66 -144t26.5 -200.5v-22h-183v14q-2 90 -22.5 155.5t-55 102.5t-75.5 54t-91 17q-52 0 -94.5 -18t-77 -57.5t-53 -109.5t-18.5 -165v-462q0 -96 18.5 -166t53 -109.5 t77 -58t94.5 -18.5q51 0 93 17.5t77 56t54.5 107.5t19.5 165v122h-234v182h418v-316q0 -115 -24.5 -205.5t-65.5 -147.5t-97.5 -94t-115.5 -52.5t-125 -15.5q-67 0 -127 15.5t-116.5 53t-97 95t-65.5 147.5t-25 204zM453 -153h179v-177l-68 -175h-66l30 175h-75v177z" />
<glyph unicode="&#x123;" horiz-adv-x="829" d="M391 1645h61l-28 -162h69v-164h-165v164zM78 374l-1 335q0 83 17 149t44.5 107.5t65.5 69t77.5 38.5t83.5 11q79 0 142.5 -34.5t100.5 -105.5l19 122h117v-1063q-1 -81 -21 -146t-52 -106t-75.5 -68t-89 -38t-94.5 -11q-53 0 -101.5 13t-93.5 41.5t-78 79.5t-46 121h163 q37 -111 155 -111q38 0 67.5 11.5t54 38t37.5 75.5t13 118v102q-67 -123 -218 -123q-44 0 -83.5 11t-77.5 38.5t-65.5 69t-44 107t-16.5 148.5zM583 446v184q1 90 -11.5 152t-37 95.5t-54 47.5t-69 14t-69 -14t-54 -47.5t-38 -96t-13.5 -151.5v-184q0 -89 13 -151 t37.5 -95.5t54 -48t69.5 -14.5t69.5 14.5t53.5 48t36.5 95.5t12.5 151z" />
<glyph unicode="&#x126;" horiz-adv-x="1290" d="M1228 1237v-168h-181v-1069h-187v671h-433v-671h-188v1069h-180v168h180v254h188v-254h433v254h187v-254h181zM860 852v217h-433v-217h433z" />
<glyph unicode="&#x127;" horiz-adv-x="917" d="M329 1213v-254q34 63 91 94t127 31q44 0 83.5 -11t78 -38.5t66 -69t44 -107.5t16.5 -149v-709h-160v630q0 90 -13 152t-38 95.5t-54.5 47.5t-68.5 14q-38 0 -67 -12.5t-54 -41.5t-38 -83.5t-13 -131.5v-670h-159v1211h-200v145h200v135h159v-134h199v-144h-199z" />
<glyph unicode="&#x12a;" horiz-adv-x="425" d="M-87 1917h600v-145h-600v145zM116 0v1491h194v-1491h-194z" />
<glyph unicode="&#x12b;" horiz-adv-x="547" d="M-26 1491h600v-145h-600v145zM197 0v1065h160v-1065h-160z" />
<glyph unicode="&#x12e;" horiz-adv-x="425" d="M116 1491h194v-1491q-28 -23 -42 -36.5t-34.5 -36.5t-29.5 -46.5t-7 -48.5q2 -41 26 -58t69 -18h29v-121h-31q-223 3 -228 155q0 16 2 31t5 28t10 26.5t12 23t15.5 22.5t15.5 19t17.5 18t16.5 15.5t16.5 14.5t13.5 12h-70v1491z" />
<glyph unicode="&#x12f;" horiz-adv-x="451" d="M137 1327v164h166v-164h-166zM300 1065v-1065q-28 -23 -41.5 -35.5t-34 -35.5t-29.5 -46t-9 -48q1 -41 25.5 -59.5t72.5 -19.5h27v-121h-31q-224 3 -229 159q0 22 4 42.5t13.5 39t18 32t24 29.5t23 24t24.5 22t20 17h-38v1065h160z" />
<glyph unicode="&#x130;" horiz-adv-x="425" d="M130 1753v165h166v-165h-166zM116 0v1491h194v-1491h-194z" />
<glyph unicode="&#x131;" horiz-adv-x="439" d="M140 0v1065h161v-1065h-161z" />
<glyph unicode="&#x132;" horiz-adv-x="1115" d="M116 1491h194v-1491h-194v1491zM814 1491h188v-993q0 -110 -23.5 -198.5t-62 -145.5t-92 -95.5t-109 -55.5t-117.5 -20h-86v181h50q51 2 94.5 21t80 58.5t57 109t20.5 163.5v975z" />
<glyph unicode="&#x133;" horiz-adv-x="919" d="M96 1399h179v-167h-179v167zM653 1398h177v-164h-177v164zM106 1065h159v-1065h-159v1065zM661 1065h161v-1058q0 -89 -14.5 -155t-38.5 -107.5t-61.5 -66.5t-78.5 -35t-95 -11h-75v144h26q42 1 69.5 7.5t49.5 23.5t34 48.5t18 79t5 117.5v1013z" />
<glyph unicode="&#x136;" horiz-adv-x="1075" d="M478 761l510 -761h-222l-456 669v-669h-194v1491h194v-631l419 631h216zM449 -330v177h179v-177l-68 -175h-66l30 175h-75z" />
<glyph unicode="&#x137;" horiz-adv-x="793" d="M391 546l335 -546h-169l-307 461v-461h-160v1491h160v-859l290 433h168zM309 -330v177h179v-177l-69 -175h-65l30 175h-75z" />
<glyph unicode="&#x139;" d="M380 1936h196l-188 -299h-131zM116 1491h188v-1309h441v-182h-629v1491z" />
<glyph unicode="&#x13a;" horiz-adv-x="410" d="M176 1898h195l-188 -300h-130zM96 0v1491h160v-1491h-160z" />
<glyph unicode="&#x13b;" d="M304 182h441v-182h-629v1491h188v-1309zM328 -330v177h178v-177l-68 -175h-66l32 175h-76z" />
<glyph unicode="&#x13c;" horiz-adv-x="338" d="M256 1491v-1491h-160v1491h160zM82 -153h179v-177l-69 -175h-66l31 175h-75v177z" />
<glyph unicode="&#x13d;" horiz-adv-x="953" d="M643 1138l30 176h-75v177h179v-177l-69 -176h-65zM304 182h441v-182h-629v1491h188v-1309z" />
<glyph unicode="&#x13e;" horiz-adv-x="557" d="M97 0v1491h159v-1491h-159zM362 1491h179v-177l-69 -176h-66l31 176h-75v177z" />
<glyph unicode="&#x13f;" horiz-adv-x="929" d="M304 182h441v-182h-629v1491h188v-1309zM627 668v109h112v-109h-112z" />
<glyph unicode="&#x140;" horiz-adv-x="630" d="M96 0v1491h160v-1491h-160zM401 633v178h179v-178h-179z" />
<glyph unicode="&#x141;" horiz-adv-x="981" d="M412 182h483v-182h-670v711l-196 -110v188l196 111v591h187v-537l198 111v-188l-198 -112v-583z" />
<glyph unicode="&#x142;" horiz-adv-x="655" d="M620 1065v-187l-211 -116v-762h-161v714l-210 -112v187l210 114v588h161v-540z" />
<glyph unicode="&#x143;" horiz-adv-x="1077" d="M502 1936h197l-188 -299h-131zM784 1491h182v-1491h-184l-489 1064v-1064h-183v1491h185l489 -1064v1064z" />
<glyph unicode="&#x144;" horiz-adv-x="840" d="M384 1511h196l-188 -299h-131zM208 1065l21 -124q37 72 99.5 107.5t141.5 35.5q44 0 83.5 -11t77.5 -38.5t65.5 -69t44 -107.5t16.5 -149v-709h-159v630q0 90 -13 152t-38 95.5t-54.5 47.5t-68.5 14q-38 0 -67.5 -12.5t-54.5 -41.5t-38 -83.5t-13 -131.5v-670h-159v1065 h116z" />
<glyph unicode="&#x145;" horiz-adv-x="1077" d="M784 1491h182v-1491h-184l-489 1064v-1064h-183v1491h185l489 -1064v1064zM450 -330v177h179v-177l-67 -175h-67l31 175h-76z" />
<glyph unicode="&#x146;" horiz-adv-x="840" d="M207 1065l22 -124q37 72 99.5 107.5t141.5 35.5q44 0 83.5 -11t77.5 -38.5t65.5 -69t44 -107.5t16.5 -149v-709h-159v630q0 90 -13 152t-38 95.5t-54.5 47.5t-68.5 14q-38 0 -67.5 -12.5t-54.5 -41.5t-38 -83.5t-13 -131.5v-670h-159v1065h115zM332 -330v177h179v-177 l-69 -175h-66l31 175h-75z" />
<glyph unicode="&#x147;" horiz-adv-x="1077" d="M699 1923h129l-200 -302h-177l-199 303h129l159 -174zM784 1491h182v-1491h-184l-489 1064v-1064h-183v1491h185l489 -1064v1064z" />
<glyph unicode="&#x148;" horiz-adv-x="840" d="M580 1498h128l-198 -303h-178l-199 303h128l160 -174zM207 1065l22 -124q37 72 99.5 107.5t141.5 35.5q44 0 83.5 -11t77.5 -38.5t65.5 -69t44 -107.5t16.5 -149v-709h-159v630q0 90 -13 152t-38 95.5t-54.5 47.5t-68.5 14q-38 0 -67.5 -12.5t-54.5 -41.5t-38 -83.5 t-13 -131.5v-670h-159v1065h115z" />
<glyph unicode="&#x14a;" horiz-adv-x="1277" d="M917 1491h187v-1448q0 -98 -15.5 -170t-42.5 -117.5t-69.5 -73t-90 -38t-109.5 -11.5h-73v178h42q47 0 74.5 7t50 28t32.5 62t12 108l-478 1081v-1097h-188v1491h185l483 -1097v1097z" />
<glyph unicode="&#x14b;" horiz-adv-x="851" d="M212 1065l21 -124q37 72 100 107.5t141 35.5q44 0 84 -11t78 -38.5t65.5 -69t44 -107.5t16.5 -149v-702q0 -90 -14.5 -157t-39 -108t-63 -66t-81 -34t-98.5 -10h-67v144h22q43 1 69.5 6.5t50 20.5t35.5 43.5t19 73.5t7 111v625q0 82 -13.5 139t-38.5 87.5t-54.5 43.5 t-67 13t-67 -12.5t-54.5 -41.5t-38 -83.5t-13 -131.5v-670h-160v1065h116z" />
<glyph unicode="&#x14c;" horiz-adv-x="1075" d="M240 1917h599v-145h-599v145zM102 498v496q0 115 25 205t66.5 147.5t98.5 95t117 53t128 15.5q66 0 126 -15t117.5 -52.5t99.5 -95t67.5 -148t25.5 -205.5v-496q0 -115 -25.5 -205.5t-67.5 -147.5t-99.5 -94.5t-117.5 -52.5t-126 -15q-68 0 -128 15.5t-117 53t-98.5 94.5 t-66.5 147.5t-25 204.5zM781 516v462q0 95 -19.5 165t-54.5 109.5t-77 57.5t-93 18q-53 0 -95 -18t-76 -57.5t-53 -109.5t-19 -165v-462q0 -96 19 -166t53 -109.5t76 -58t95 -18.5q51 0 93 18.5t77 57.5t54.5 109.5t19.5 166.5z" />
<glyph unicode="&#x14d;" horiz-adv-x="819" d="M112 1491h599v-145h-599v145zM78 358v351q0 83 19.5 148.5t51.5 107t75.5 69t89 39t95.5 11.5t95.5 -11t90 -38.5t76.5 -69t52 -107.5t20 -149v-351q0 -83 -20 -149t-52 -107.5t-76.5 -69t-90 -38.5t-95.5 -11t-95.5 11.5t-89 39t-75.5 69t-51.5 107t-19.5 148.5z M583 437v193q0 89 -13 151.5t-38 96t-54.5 47.5t-67.5 14q-40 0 -69.5 -14t-54 -47.5t-37 -95.5t-12.5 -152v-193q1 -90 13 -151.5t36 -95.5t54 -48t71 -14q39 0 69 14.5t54.5 48t37 95.5t11.5 151z" />
<glyph unicode="&#x150;" horiz-adv-x="1075" d="M373 1936h184l-188 -299h-118zM645 1936h184l-188 -299h-119zM102 498v496q0 115 25 205t66.5 147.5t98.5 95t117 53t128 15.5q66 0 126 -15t117.5 -52.5t99.5 -95t67.5 -148t25.5 -205.5v-496q0 -115 -25.5 -205.5t-67.5 -147.5t-99.5 -94.5t-117.5 -52.5t-126 -15 q-68 0 -128 15.5t-117 53t-98.5 94.5t-66.5 147.5t-25 204.5zM781 516v462q0 95 -19.5 165t-54.5 109.5t-77 57.5t-93 18q-53 0 -95 -18t-76 -57.5t-53 -109.5t-19 -165v-462q0 -96 19 -166t53 -109.5t76 -58t95 -18.5q51 0 93 18.5t77 57.5t54.5 109.5t19.5 166.5z" />
<glyph unicode="&#x151;" horiz-adv-x="866" d="M279 1511h184l-188 -299h-119zM550 1511h184l-188 -299h-119zM78 358v351q0 83 19.5 148.5t51.5 107t75.5 69t89 39t95.5 11.5t95.5 -11t90 -38.5t76.5 -69t52 -107.5t20 -149v-351q0 -83 -20 -149t-52 -107.5t-76.5 -69t-90 -38.5t-95.5 -11t-95.5 11.5t-89 39t-75.5 69 t-51.5 107t-19.5 148.5zM583 437v193q0 89 -13 151.5t-38 96t-54.5 47.5t-67.5 14q-40 0 -69.5 -14t-54 -47.5t-37 -95.5t-12.5 -152v-193q1 -90 13 -151.5t36 -95.5t54 -48t71 -14q39 0 69 14.5t54.5 48t37 95.5t11.5 151z" />
<glyph unicode="&#x152;" horiz-adv-x="1586" d="M78 498v496q0 115 25 205t66.5 147.5t98.5 95t117.5 53t127.5 15.5q93 0 171.5 -38t125.5 -122v141h646v-182h-459v-457h437v-181h-437v-489h459v-182h-646v144q-47 -84 -125.5 -122.5t-171.5 -38.5q-67 0 -127.5 15.5t-117.5 53t-98.5 94.5t-66.5 147.5t-25 204.5z M757 516v462q0 95 -19.5 165t-54.5 109.5t-77 57.5t-93 18q-53 0 -95 -18t-76.5 -57.5t-53.5 -109.5t-19 -165v-462q0 -96 19 -166t53.5 -109.5t76.5 -58t95 -18.5q51 0 93 18.5t77 57.5t54.5 109.5t19.5 166.5z" />
<glyph unicode="&#x153;" horiz-adv-x="1475" d="M145 358v351q0 83 17 148.5t45 107t66.5 69t78.5 39t84 11.5q90 0 159 -41.5t104 -130.5q28 61 75.5 101t98.5 55.5t110 15.5q49 0 94.5 -11t89.5 -38.5t76 -69t52 -107.5t20 -149v-240h-504v-82q0 -74 13 -126t37.5 -80.5t54 -40.5t68.5 -12q162 0 171 220h160 q-2 -81 -22 -145t-52 -104.5t-76 -67t-88.5 -37.5t-93.5 -11q-59 0 -110 15.5t-98 55.5t-75 101q-35 -89 -104.5 -130.5t-159.5 -41.5q-44 0 -84 11.5t-78.5 39t-66.5 69t-45 107t-17 148.5zM650 437v193q0 89 -13.5 151.5t-38.5 96t-54.5 47.5t-67.5 14q-39 0 -68.5 -14 t-53.5 -47.5t-36.5 -95.5t-12.5 -152v-193q0 -90 12 -151.5t36 -95.5t54 -48t70 -14t69.5 14.5t54 48t37 95.5t12.5 151zM1153 614v98q-2 227 -170 227t-172 -227v-98h342z" />
<glyph unicode="&#x154;" horiz-adv-x="1028" d="M478 1936h197l-188 -299h-131zM116 1490h347q68 0 131 -11.5t124 -40.5t105 -72.5t71 -113t27 -156.5v-72q0 -67 -18.5 -123t-52 -95.5t-74 -67t-90.5 -44.5l256 -694h-198l-238 604l-202 9v-613h-188v1490zM737 1051v19q0 55 -14 97.5t-37.5 69t-56.5 43t-67 23t-73 6.5 h-185v-498h185q38 0 72 7t67 24t56.5 43.5t38 69t14.5 96.5z" />
<glyph unicode="&#x155;" horiz-adv-x="572" d="M251 1511h196l-189 -299h-130zM207 1065l27 -152q44 83 115 127t156 44v-144q-117 0 -185.5 -78t-68.5 -241v-621h-159v1065h115z" />
<glyph unicode="&#x156;" horiz-adv-x="1028" d="M116 1490h347q68 0 131 -11.5t124 -40.5t105 -72.5t71 -113t27 -156.5v-72q0 -67 -18.5 -123t-52 -95.5t-74 -67t-90.5 -44.5l256 -694h-198l-238 604l-202 9v-613h-188v1490zM737 1051v19q0 55 -14 97.5t-37.5 69t-56.5 43t-67 23t-73 6.5h-185v-498h185q38 0 72 7 t67 24t56.5 43.5t38 69t14.5 96.5zM426 -153h179v-177l-68 -175h-66l30 175h-75v177z" />
<glyph unicode="&#x157;" horiz-adv-x="572" d="M207 1065l27 -152q44 83 115 127t156 44v-144q-117 0 -185.5 -78t-68.5 -241v-621h-159v1065h115zM202 -330v177h179v-177l-69 -175h-67l32 175h-75z" />
<glyph unicode="&#x158;" horiz-adv-x="1028" d="M675 1923h128l-199 -302h-178l-198 303h128l160 -174zM116 1490h347q68 0 131 -11.5t124 -40.5t105 -72.5t71 -113t27 -156.5v-72q0 -67 -18.5 -123t-52 -95.5t-74 -67t-90.5 -44.5l256 -694h-198l-238 604l-202 9v-613h-188v1490zM737 1051v19q0 55 -14 97.5t-37.5 69 t-56.5 43t-67 23t-73 6.5h-185v-498h185q38 0 72 7t67 24t56.5 43.5t38 69t14.5 96.5z" />
<glyph unicode="&#x159;" horiz-adv-x="572" d="M446 1498h129l-200 -303h-176l-200 303h129l159 -174zM207 1065l27 -152q44 83 115 127t156 44v-144q-117 0 -185.5 -78t-68.5 -241v-621h-159v1065h115z" />
<glyph unicode="&#x15a;" horiz-adv-x="1036" d="M483 1936h196l-189 -299h-130zM82 454h183q0 -76 22 -134t58.5 -91t80 -49t91.5 -16q118 0 185 63.5t67 185.5q0 51 -13.5 90.5t-35.5 67t-59 49.5t-76.5 36.5t-95.5 28.5q-38 10 -65.5 18.5t-69 26t-71 37t-62.5 51t-54 68.5t-34.5 89.5t-13.5 113.5q0 92 23.5 165 t62.5 120.5t92.5 78.5t110.5 44t120 13t119.5 -14.5t110.5 -50t93.5 -88.5t63 -135.5t23.5 -185.5h-181q0 74 -19 131.5t-51.5 91.5t-72.5 51.5t-86 17.5q-96 0 -158.5 -59t-62.5 -170q1 -36 10.5 -66.5t22.5 -51.5t35.5 -39t40 -28.5t47 -21t45.5 -15t44 -10.5q15 -4 22 -6 q201 -48 292 -156.5t91 -274.5q0 -99 -23.5 -176.5t-63.5 -127.5t-97 -82.5t-120 -46.5t-136 -14q-65 0 -124.5 14.5t-116.5 49.5t-99 87.5t-68 135t-27 184.5z" />
<glyph unicode="&#x15b;" horiz-adv-x="793" d="M360 1511h196l-188 -299h-131zM224 323v-21q1 -48 16.5 -83t41 -54t54.5 -28t61 -9q80 0 127 39.5t47 124.5q0 89 -49.5 135t-150.5 72q-42 9 -78.5 22.5t-76 37t-66.5 54t-45 76.5t-18 101q0 76 25 134t69.5 92t99.5 51t120 17q62 0 116.5 -19.5t99.5 -56.5t72 -97.5 t30 -137.5v-21h-161v20q-4 87 -48 127t-108 40q-71 0 -113.5 -33t-42.5 -106q1 -32 14 -58.5t29.5 -42.5t43 -29.5t44.5 -19.5t44 -14q87 -20 148.5 -53.5t96 -78t49.5 -94t15 -109.5q0 -83 -25.5 -145t-72 -99t-105.5 -55.5t-130 -18.5q-48 0 -94 11.5t-89 37t-75.5 61.5 t-52.5 88.5t-22 115.5v26h160z" />
<glyph unicode="&#x15e;" horiz-adv-x="1036" d="M82 454h182q0 -76 22 -134t59 -91t80.5 -49t91.5 -16q118 0 185 63.5t67 185.5q0 51 -13.5 91t-35.5 67.5t-59 49.5t-76.5 36.5t-95.5 28.5q-38 10 -65.5 18.5t-69 26t-71 36.5t-63 50.5t-54 68.5t-34 89.5t-13.5 113.5q0 92 23.5 165t62.5 120.5t92.5 78.5t110.5 44 t120 13t119.5 -14.5t110.5 -50t93.5 -88.5t63 -135.5t23.5 -185.5h-181q0 74 -19 131.5t-51.5 91.5t-72.5 51.5t-86 17.5q-96 0 -158.5 -58.5t-62.5 -169.5q1 -36 10.5 -66.5t22.5 -52t36 -39.5t40.5 -28.5t47 -21t45.5 -15t44 -11.5q14 -3 21 -5q201 -48 292 -156.5 t91 -274.5q0 -96 -22 -172t-63 -126.5t-92.5 -82.5t-117.5 -48v-100q-1 -141 -53.5 -202.5t-184.5 -63.5h-48v122h47q60 2 83.5 35.5t23.5 107.5v88h-61q-58 4 -111.5 22t-104 54.5t-87.5 88t-60 129.5t-24 172z" />
<glyph unicode="&#x15f;" horiz-adv-x="793" d="M224 323v-22q1 -48 17 -83t41.5 -54t54 -27.5t60.5 -8.5q80 0 127 39.5t47 124.5q0 89 -49.5 135t-150.5 72q-42 9 -78.5 22.5t-76 37t-66.5 54t-45 76.5t-18 101q0 76 25 134t69.5 92t99.5 51t120 17q61 0 116 -19.5t99.5 -56.5t72 -97t30.5 -135v-24h-161v23 q-4 85 -48.5 124.5t-107.5 39.5q-71 0 -113.5 -33t-42.5 -106q1 -32 14 -58.5t29.5 -42.5t43 -29.5t44.5 -19.5t44 -14q87 -20 148.5 -53.5t96 -78t49.5 -94t15 -109.5q0 -117 -50.5 -190t-138.5 -105v-101q-2 -144 -53.5 -206t-185.5 -64h-47v121h43q61 2 85 35.5t25 108.5 v91q-43 -2 -65 0q-52 7 -99 28t-87.5 57t-65.5 93t-27 128v26h160z" />
<glyph unicode="&#x160;" horiz-adv-x="1036" d="M678 1923h129l-200 -302h-176l-200 303h129l159 -174zM82 454h182q0 -76 22 -134t59 -91t80.5 -49t91.5 -16q118 0 185 63.5t67 185.5q0 51 -13.5 90.5t-35.5 67t-59 49.5t-76.5 36.5t-95.5 28.5q-38 10 -65.5 18.5t-69 26t-71 37t-62.5 51t-54 68.5t-34.5 89.5 t-13.5 113.5q0 92 23.5 165t62.5 120.5t92.5 78.5t110.5 44t120 13t119.5 -14.5t110.5 -50t93.5 -88.5t63 -135.5t23.5 -185.5h-181q0 74 -19 131.5t-51.5 91.5t-72.5 51.5t-86 17.5q-96 0 -158.5 -59t-62.5 -170q1 -36 10.5 -66.5t22.5 -51.5t35.5 -39t40 -28.5t47 -21 t45.5 -15t44 -10.5q15 -4 22 -6q201 -48 292 -156.5t91 -274.5q0 -99 -23.5 -176.5t-63.5 -127.5t-97 -82.5t-120 -46.5t-136 -14q-65 0 -124.5 14.5t-116.5 49.5t-99 87.5t-68 135t-27 184.5z" />
<glyph unicode="&#x161;" horiz-adv-x="793" d="M556 1498h129l-199 -303h-177l-200 303h129l159 -174zM224 323v-21q1 -48 16.5 -83t41 -54t54.5 -28t61 -9q80 0 127 39.5t47 124.5q0 89 -49.5 135t-150.5 72q-42 9 -78.5 22.5t-76 37t-66.5 54t-45 76.5t-18 101q0 76 25 134t69.5 92t99.5 51t120 17q62 0 116.5 -19.5 t99.5 -56.5t72 -97.5t30 -137.5v-21h-161v20q-4 87 -48 127t-108 40q-71 0 -113.5 -33t-42.5 -106q1 -32 14 -58.5t29.5 -42.5t43 -29.5t44.5 -19.5t44 -14q87 -20 148.5 -53.5t96 -78t49.5 -94t15 -109.5q0 -83 -25.5 -145t-72 -99t-105.5 -55.5t-130 -18.5q-48 0 -94 11.5 t-89 37t-75.5 61.5t-52.5 88.5t-22 115.5v26h160z" />
<glyph unicode="&#x162;" horiz-adv-x="941" d="M87 1491h768v-182h-290v-1393q0 -76 -11.5 -126.5t-39 -86t-74 -51.5t-117.5 -17h-45v121h43q63 1 86 35.5t26 114.5v94h-55v1309h-291v182z" />
<glyph unicode="&#x163;" horiz-adv-x="651" d="M218 1390h160v-325h203v-144h-203v-509q0 -76 6 -126t17.5 -82.5t34 -49t49 -23t69.5 -6.5h27v-144h-19q-53 0 -85 4v-81q-4 -125 -58 -181t-181 -58h-47v121h45q61 2 84.5 37t24.5 113v84q-63 34 -95 115.5t-32 231.5v554h-146v144h146v325z" />
<glyph unicode="&#x164;" horiz-adv-x="941" d="M630 1923h129l-199 -302h-177l-200 303h129l159 -174zM855 1491v-182h-290v-1309h-187v1309h-291v182h768z" />
<glyph unicode="&#x165;" horiz-adv-x="800" d="M499 1506h166v-164l-64 -162h-60l28 162h-70v164zM218 1390h160v-325h203v-144h-203v-509q0 -75 6 -125t17.5 -82.5t33.5 -49.5t48 -23.5t68 -6.5h30v-144h-69q-57 1 -98 9.5t-80 33.5t-63 67t-38.5 111.5t-14.5 164.5v554h-146v144h146v325z" />
<glyph unicode="&#x166;" horiz-adv-x="941" d="M87 1491h768v-182h-290v-426h185v-144h-185v-739h-187v739h-176v144h176v426h-291v182z" />
<glyph unicode="&#x167;" horiz-adv-x="651" d="M581 921h-203v-200h204v-144h-204v-189q0 -69 7 -116t19 -76t34 -44.5t47.5 -21t65.5 -5.5h30v-144h-69q-57 1 -98 9.5t-80 33.5t-63 67t-38.5 111.5t-14.5 164.5v210h-146v144h146v200h-146v144h146v325h160v-325h203v-144z" />
<glyph unicode="&#x16a;" horiz-adv-x="1081" d="M242 1917h599v-145h-599v145zM304 508v983h-188v-1001q0 -113 24.5 -202t64.5 -145.5t96 -93t115.5 -51.5t126.5 -15q66 0 125 15t115.5 51.5t97.5 92.5t65.5 145t24.5 203v1001h-187v-983q0 -94 -19 -162.5t-53 -107t-76 -56.5t-93 -18q-52 0 -94 18t-75.5 56.5 t-51.5 107t-18 162.5z" />
<glyph unicode="&#x16b;" d="M119 1491h599v-145h-599v145zM590 1065h159v-1065h-116l-20 124q-37 -72 -100 -107.5t-142 -35.5q-44 0 -83.5 11t-77.5 38.5t-65.5 69t-44.5 107.5t-17 149v709h160v-630q0 -90 13.5 -152t38 -95.5t54 -47.5t68.5 -14q38 0 67.5 12.5t54 41.5t38 83.5t13.5 131.5v670z " />
<glyph unicode="&#x16e;" horiz-adv-x="1081" d="M542 1982q89 0 153 -64t64 -152q0 -91 -63.5 -154.5t-153.5 -63.5q-91 0 -153.5 63t-62.5 155q0 89 62.5 152.5t153.5 63.5zM542 1865q-42 0 -71 -29.5t-29 -69.5q0 -42 29 -71.5t71 -29.5q41 0 70.5 29.5t29.5 71.5q0 40 -29.5 69.5t-70.5 29.5zM304 508v983h-188v-1001 q0 -113 24.5 -202t64.5 -145.5t96 -93t115.5 -51.5t126.5 -15q66 0 125 15t115.5 51.5t97.5 92.5t65.5 145t24.5 203v1001h-187v-983q0 -94 -19 -162.5t-53 -107t-76 -56.5t-93 -18q-52 0 -94 18t-75.5 56.5t-51.5 107t-18 162.5z" />
<glyph unicode="&#x16f;" d="M417 1557q89 0 153 -64t64 -152q0 -92 -63.5 -156t-153.5 -64q-91 0 -153.5 64t-62.5 156q0 88 62.5 152t153.5 64zM417 1439q-42 0 -70.5 -29t-28.5 -69q0 -43 28.5 -72.5t70.5 -29.5q41 0 71 30t30 72q0 40 -30 69t-71 29zM590 1065h159v-1065h-116l-20 124 q-37 -72 -100 -107.5t-142 -35.5q-44 0 -83.5 11t-77.5 38.5t-65.5 69t-44.5 107.5t-17 149v709h160v-630q0 -90 13.5 -152t38 -95.5t54 -47.5t68.5 -14q38 0 67.5 12.5t54 41.5t38 83.5t13.5 131.5v670z" />
<glyph unicode="&#x170;" horiz-adv-x="1081" d="M375 1936h185l-189 -299h-118zM647 1936h184l-188 -299h-119zM304 508v983h-188v-1001q0 -113 24.5 -202t64.5 -145.5t96 -93t115.5 -51.5t126.5 -15q66 0 125 15t115.5 51.5t97.5 92.5t65.5 145t24.5 203v1001h-187v-983q0 -94 -19 -162.5t-53 -107t-76 -56.5t-93 -18 q-52 0 -94 18t-75.5 56.5t-51.5 107t-18 162.5z" />
<glyph unicode="&#x171;" d="M264 1511h184l-188 -299h-119zM536 1511h184l-189 -299h-118zM590 1065h160v-1065h-117l-20 124q-37 -72 -100 -107.5t-142 -35.5q-44 0 -83.5 11t-77.5 38.5t-65.5 69t-44.5 107.5t-17 149v709h160v-630q0 -90 13.5 -152t38 -95.5t54 -47.5t68.5 -14q38 0 67.5 12.5 t54 41.5t38 83.5t13.5 131.5v670z" />
<glyph unicode="&#x172;" horiz-adv-x="1081" d="M784 1491h187v-1002q0 -168 -53.5 -273.5t-144.5 -156.5l-46 -60q-22 -18 -38 -32.5t-35 -37t-28.5 -47.5t-7.5 -50q1 -40 25.5 -57.5t69.5 -18.5h29v-121h-31q-226 3 -229 159q-1 33 8.5 62.5t28 54.5t33.5 40.5t37 33.5l-46 -2q-67 0 -126.5 15t-115.5 51.5t-96 93 t-64.5 145.5t-24.5 202v1001h188v-983q0 -94 18 -162.5t51.5 -107t75.5 -56.5t94 -18q51 0 93 18t76 56.5t53 107t19 162.5v983z" />
<glyph unicode="&#x173;" d="M590 1065h160v-1065q-24 -20 -33 -28t-29 -28t-28.5 -34t-16.5 -34.5t-8 -40.5q0 -41 25 -59.5t71 -19.5h29v-121h-34q-217 5 -225 152q0 15 2 31t5.5 28t11 26.5t12.5 24t16.5 23t16.5 19t19 18.5t17 15.5t17.5 15l14.5 12.5l-20 125q-38 -72 -100.5 -108t-141.5 -36 q-44 0 -83.5 11t-77.5 38.5t-65.5 69t-44.5 107.5t-17 149v709h160v-630q0 -90 13.5 -152t38 -95.5t54 -47.5t68.5 -14q38 0 67.5 12.5t54 41.5t38 83.5t13.5 131.5v670z" />
<glyph unicode="&#x174;" horiz-adv-x="1686" d="M756 1924h177l200 -303h-129l-160 173l-159 -174h-129zM1410 1491h191l-310 -1491h-219l-229 1040l-229 -1040h-219l-308 1491h190l239 -1174l239 1174h177l239 -1174z" />
<glyph unicode="&#x175;" horiz-adv-x="1388" d="M605 1498h178l199 -303h-128l-160 174l-159 -174h-128zM1160 1065h161l-245 -1065h-192l-189 756l-190 -756h-192l-244 1065h161l190 -847l205 847h138l205 -847z" />
<glyph unicode="&#x176;" horiz-adv-x="1096" d="M461 1924h177l199 -303h-129l-159 173l-159 -174h-129zM813 1491h198l-368 -890v-601h-194v600l-362 891h196l263 -676z" />
<glyph unicode="&#x177;" horiz-adv-x="802" d="M314 1498h177l200 -303h-129l-160 174l-159 -174h-129zM575 1066h159v-1078q-2 -78 -22.5 -140t-52.5 -101.5t-75 -65.5t-87.5 -36.5t-92.5 -10.5q-42 0 -81 8t-78.5 26.5t-70.5 47t-55.5 73t-35.5 100.5h165q36 -111 154 -111q39 0 68.5 12t54 38.5t37.5 75.5t13 119 v101q-34 -63 -91 -93.5t-128 -30.5q-44 0 -83.5 11t-77.5 38.5t-65.5 69t-44 107t-16.5 148.5v691h159v-612q0 -89 13 -151.5t37.5 -95.5t54.5 -47t68 -14q40 0 69.5 14t54 47t37.5 95.5t13 151.5v613z" />
<glyph unicode="&#x178;" horiz-adv-x="1096" d="M329 1752v165h165v-165h-165zM605 1752v165h167v-165h-167zM813 1491h198l-368 -890v-601h-194v600l-362 891h196l263 -676z" />
<glyph unicode="&#x179;" horiz-adv-x="1045" d="M487 1936h196l-188 -299h-131zM99 1491h852v-159l-663 -1149h675v-183h-881v155l666 1154h-649v182z" />
<glyph unicode="&#x17a;" horiz-adv-x="776" d="M352 1511h196l-188 -299h-131zM93 1065h609v-122l-457 -798h463v-145h-639v121l459 798h-435v146z" />
<glyph unicode="&#x17b;" horiz-adv-x="1045" d="M441 1918h166v-165h-166v165zM99 1491h852v-159l-663 -1149h675v-183h-881v155l666 1154h-649v182z" />
<glyph unicode="&#x17c;" horiz-adv-x="776" d="M306 1491h166v-164h-166v164zM93 1065h609v-122l-457 -798h463v-145h-639v121l459 798h-435v146z" />
<glyph unicode="&#x17d;" horiz-adv-x="1045" d="M683 1923h128l-198 -302h-178l-200 303h129l159 -174zM99 1491h852v-159l-663 -1149h675v-183h-881v155l666 1154h-649v182z" />
<glyph unicode="&#x17e;" horiz-adv-x="776" d="M548 1498h128l-199 -303h-177l-199 303h128l160 -174zM93 1065h609v-122l-457 -798h463v-145h-639v121l459 798h-435v146z" />
<glyph unicode="&#x192;" horiz-adv-x="750" d="M644 1502h46v-145h-30q-34 0 -57.5 -3.5t-44.5 -14t-34.5 -27t-26.5 -45.5t-22.5 -67t-18.5 -94l-9 -41h215v-145h-239l-156 -920h-160l156 920h-199v145h223l16 91q11 66 26 116.5t32 86.5t40.5 61.5t47.5 41.5t56.5 24.5t64 12t74.5 3.5z" />
<glyph unicode="&#x1cd;" horiz-adv-x="1122" d="M721 1923h129l-199 -302h-178l-199 303h128l160 -174zM442 1491h236l357 -1491h-188l-103 412h-365l-104 -412h-188zM719 601l-158 669l-159 -669h317z" />
<glyph unicode="&#x1ce;" horiz-adv-x="829" d="M576 1498h129l-200 -303h-176l-200 303h129l159 -174zM627 1065h117v-1065h-117l-18 124q-72 -141 -240 -141q-44 0 -84 11t-78.5 38.5t-67 69t-45.5 107.5t-17 149v351q0 83 17 149t45.5 107.5t67 69t78.5 38.5t84 11q167 0 239 -137zM237 630v-193q0 -89 13 -151 t37.5 -95.5t54.5 -48t70 -14.5t70 14.5t54 48t36 95.5t11 151v193q0 90 -12.5 152t-37 95.5t-54 47.5t-68.5 14t-68.5 -14t-54.5 -47.5t-38 -95.5t-13 -152z" />
<glyph unicode="&#x1cf;" horiz-adv-x="425" d="M372 1923h128l-198 -302h-178l-200 303h129l159 -174zM116 0v1491h194v-1491h-194z" />
<glyph unicode="&#x1d0;" horiz-adv-x="565" d="M443 1498h129l-200 -303h-176l-200 303h129l159 -174zM205 0v1065h160v-1065h-160z" />
<glyph unicode="&#x1d1;" horiz-adv-x="1075" d="M698 1923h129l-200 -302h-177l-199 303h129l159 -174zM102 498v496q0 115 25 205t66.5 147.5t98.5 95t117 53t128 15.5q66 0 126 -15t117.5 -52.5t99.5 -95t67.5 -148t25.5 -205.5v-496q0 -115 -25.5 -205.5t-67.5 -147.5t-99.5 -94.5t-117.5 -52.5t-126 -15 q-68 0 -128 15.5t-117 53t-98.5 94.5t-66.5 147.5t-25 204.5zM781 516v462q0 95 -19.5 165t-54.5 109.5t-77 57.5t-93 18q-53 0 -95 -18t-76 -57.5t-53 -109.5t-19 -165v-462q0 -96 19 -166t53 -109.5t76 -58t95 -18.5q51 0 93 18.5t77 57.5t54.5 109.5t19.5 166.5z" />
<glyph unicode="&#x1d2;" horiz-adv-x="819" d="M570 1498h129l-199 -303h-178l-199 303h129l159 -174zM78 358v351q0 83 19.5 148.5t51.5 107t75.5 69t89 39t95.5 11.5t95.5 -11t90 -38.5t76.5 -69t52 -107.5t20 -149v-351q0 -83 -20 -149t-52 -107.5t-76.5 -69t-90 -38.5t-95.5 -11t-95.5 11.5t-89 39t-75.5 69 t-51.5 107t-19.5 148.5zM583 437v193q0 89 -13 151.5t-38 96t-54.5 47.5t-67.5 14q-40 0 -69.5 -14t-54 -47.5t-37 -95.5t-12.5 -152v-193q1 -90 13 -151.5t36 -95.5t54 -48t71 -14q39 0 69 14.5t54.5 48t37 95.5t11.5 151z" />
<glyph unicode="&#x1d3;" horiz-adv-x="1081" d="M701 1923h128l-199 -302h-178l-198 303h128l160 -174zM304 508v983h-188v-1001q0 -113 24.5 -202t64.5 -145.5t96 -93t115.5 -51.5t126.5 -15q66 0 125 15t115.5 51.5t97.5 92.5t65.5 145t24.5 203v1001h-187v-983q0 -94 -19 -162.5t-53 -107t-76 -56.5t-93 -18 q-52 0 -94 18t-75.5 56.5t-51.5 107t-18 162.5z" />
<glyph unicode="&#x1d4;" d="M576 1498h129l-200 -303h-176l-200 303h129l159 -174zM590 1065h159v-1065h-116l-20 124q-37 -72 -100 -107.5t-142 -35.5q-44 0 -83.5 11t-77.5 38.5t-65.5 69t-44.5 107.5t-17 149v709h160v-630q0 -90 13.5 -152t38 -95.5t54 -47.5t68.5 -14q38 0 67.5 12.5t54 41.5 t38 83.5t13.5 131.5v670z" />
<glyph unicode="&#x1d5;" horiz-adv-x="1081" d="M242 2061h599v-145h-599v145zM320 1569v165h166v-165h-166zM598 1569v165h165v-165h-165zM304 506v985h-188v-1002q0 -113 24.5 -202t64.5 -145t96 -92.5t115.5 -51.5t126.5 -15q66 0 125 14.5t115.5 51t97.5 92.5t65.5 145t24.5 203v1002h-187v-985q0 -93 -19 -161.5 t-53 -106.5t-76 -56t-93 -18q-52 0 -94 18t-75.5 56.5t-51.5 106.5t-18 161z" />
<glyph unicode="&#x1d6;" d="M119 1634h599v-146h-599v146zM197 1163v164h165v-164h-165zM473 1163v164h167v-164h-167zM590 1065h159v-1065h-116l-20 124q-37 -72 -100 -107.5t-142 -35.5q-44 0 -83.5 11t-77.5 38.5t-65.5 69t-44.5 107.5t-17 149v709h160v-630q0 -90 13.5 -152t38 -95.5t54 -47.5 t68.5 -14q38 0 67.5 12.5t54 41.5t38 83.5t13.5 131.5v670z" />
<glyph unicode="&#x1d7;" horiz-adv-x="1081" d="M510 2106h196l-188 -300h-131zM320 1734h166v-165h-166v165zM598 1734h165v-165h-165v165zM784 1491h187v-1001q0 -114 -24.5 -203t-65.5 -145t-97.5 -92.5t-115.5 -51.5t-125 -15q-67 0 -126.5 15t-115.5 51.5t-96 93t-64.5 145.5t-24.5 202v1001h188v-983 q0 -94 18 -162.5t51.5 -107t75.5 -56.5t94 -18q51 0 93 18t76 56.5t53 107t19 162.5v983z" />
<glyph unicode="&#x1d8;" d="M381 1676h196l-189 -299h-130zM197 1163v164h165v-164h-165zM473 1163v164h167v-164h-167zM590 1065h160v-1065h-117l-20 124q-37 -72 -100 -107.5t-142 -35.5q-44 0 -83.5 11t-77.5 38.5t-65.5 69t-44.5 107.5t-17 149v709h160v-630q0 -90 13.5 -152t38 -95.5t54 -47.5 t68.5 -14q38 0 67.5 12.5t54 41.5t38 83.5t13.5 131.5v670z" />
<glyph unicode="&#x1d9;" horiz-adv-x="1081" d="M701 2090h128l-199 -302h-178l-198 302h128l160 -173zM320 1569v165h166v-165h-166zM598 1569v165h165v-165h-165zM304 508v983h-188v-1001q0 -113 24.5 -202t64.5 -145.5t96 -93t115.5 -51.5t126.5 -15q66 0 125 15t115.5 51.5t97.5 92.5t65.5 145t24.5 203v1001h-187 v-983q0 -94 -19 -162.5t-53 -107t-76 -56.5t-93 -18q-52 0 -94 18t-75.5 56.5t-51.5 107t-18 162.5z" />
<glyph unicode="&#x1da;" d="M576 1662h129l-200 -303h-176l-200 303h129l159 -174zM197 1163v164h165v-164h-165zM473 1163v164h167v-164h-167zM590 1065h159v-1065h-116l-20 124q-37 -72 -100 -107.5t-142 -35.5q-44 0 -83.5 11t-77.5 38.5t-65.5 69t-44.5 107.5t-17 149v709h160v-630 q0 -90 13.5 -152t38 -95.5t54 -47.5t68.5 -14q38 0 67.5 12.5t54 41.5t38 83.5t13.5 131.5v670z" />
<glyph unicode="&#x1db;" horiz-adv-x="1081" d="M382 2105h196l123 -300h-131zM320 1569v165h166v-165h-166zM598 1569v165h165v-165h-165zM304 506v985h-188v-1002q0 -113 24.5 -202t64.5 -145t96 -92.5t115.5 -51.5t126.5 -15q66 0 125 14.5t115.5 51t97.5 92.5t65.5 145t24.5 203v1002h-187v-985q0 -93 -19 -161.5 t-53 -106.5t-76 -56t-93 -18q-52 0 -94 18t-75.5 56.5t-51.5 106.5t-18 161z" />
<glyph unicode="&#x1dc;" d="M258 1676h196l123 -299h-131zM197 1163v164h165v-164h-165zM473 1163v164h167v-164h-167zM590 1065h160v-1065h-117l-20 124q-37 -72 -100 -107.5t-142 -35.5q-44 0 -83.5 11t-77.5 38.5t-65.5 69t-44.5 107.5t-17 149v709h160v-630q0 -90 13.5 -152t38 -95.5t54 -47.5 t68.5 -14q38 0 67.5 12.5t54 41.5t38 83.5t13.5 131.5v670z" />
<glyph unicode="&#x218;" horiz-adv-x="1036" d="M938 1036h-181q0 74 -19 131.5t-51.5 91.5t-72.5 51.5t-86 17.5q-96 0 -158.5 -59t-62.5 -170q1 -36 10.5 -66.5t22.5 -51.5t35.5 -39t40 -28.5t47 -21t45.5 -15t44 -10.5q15 -4 22 -6q201 -48 292 -156.5t91 -274.5q0 -99 -23.5 -176.5t-63.5 -127.5t-97 -82.5 t-120 -46.5t-136 -14q-65 0 -124.5 14.5t-116.5 49.5t-99 87.5t-68 135t-27 184.5h182q0 -76 22 -134t59 -91t80.5 -49t91.5 -16q118 0 185 63.5t67 185.5q0 51 -13.5 91t-35.5 67.5t-59 49.5t-76.5 36.5t-95.5 28.5q-38 10 -65.5 18.5t-69 26t-71 36.5t-63 50.5t-54 68.5 t-34 89.5t-13.5 113.5q0 92 23.5 165t62.5 120.5t92.5 78.5t110.5 44t120 13t119.5 -14.5t110.5 -50t93.5 -88.5t63 -135.5t23.5 -185.5zM431 -330v177h178v-177l-68 -175h-67l31 175h-74z" />
<glyph unicode="&#x219;" horiz-adv-x="793" d="M224 323v-21q1 -48 16.5 -83t41 -54t54.5 -28t61 -9q80 0 127 39.5t47 124.5q0 89 -49.5 135t-150.5 72q-42 9 -78.5 22.5t-76 37t-66.5 54t-45 76.5t-18 101q0 76 25 134t69.5 92t99.5 51t120 17q62 0 116.5 -19.5t99.5 -56.5t72 -97.5t30 -137.5v-21h-161v20 q-4 87 -48 127t-108 40q-71 0 -113.5 -33t-42.5 -106q1 -32 14 -58.5t29.5 -42.5t43 -29.5t44.5 -19.5t44 -14q87 -20 148.5 -53.5t96 -78t49.5 -94t15 -109.5q0 -83 -25.5 -145t-72 -99t-105.5 -55.5t-130 -18.5q-48 0 -94 11.5t-89 37t-75.5 61.5t-52.5 88.5t-22 115.5v26 h160zM308 -153h179v-177l-68 -175h-66l31 175h-76v177z" />
<glyph unicode="&#x21a;" horiz-adv-x="941" d="M87 1491h768v-182h-290v-1309h-187v1309h-291v182zM382 -153h179v-177l-68 -175h-67l32 175h-76v177z" />
<glyph unicode="&#x21b;" horiz-adv-x="651" d="M378 921v-509q0 -76 6 -126t17.5 -82.5t34 -49t49 -23t68.5 -6.5h28v-144h-68q-57 1 -98 9.5t-80 33t-63.5 66.5t-39 111.5t-14.5 165.5v554h-146v144h146v325h160v-325h203v-144h-203zM276 -153h178v-177l-68 -175h-66l30 175h-74v177z" />
<glyph unicode="&#x2c6;" horiz-adv-x="843" d="M333 1498h178l199 -303h-129l-159 174l-159 -174h-129z" />
<glyph unicode="&#x2c7;" horiz-adv-x="843" d="M581 1498h129l-199 -303h-177l-200 303h129l159 -174z" />
<glyph unicode="&#x2d8;" horiz-adv-x="783" d="M259 1491h-139q11 -101 89 -170.5t183 -69.5t182.5 69t89.5 171h-139q-12 -44 -49 -73t-84 -29q-48 0 -84.5 29t-48.5 73z" />
<glyph unicode="&#x2d9;" horiz-adv-x="391" d="M113 1327v164h166v-164h-166z" />
<glyph unicode="&#x2da;" horiz-adv-x="691" d="M345 1557q90 0 154.5 -64t64.5 -152q0 -91 -64.5 -155.5t-154.5 -64.5q-91 0 -153.5 64t-62.5 156q0 88 63 152t153 64zM345 1439q-41 0 -70 -29t-29 -69q0 -43 28.5 -72.5t70.5 -29.5t71.5 30t29.5 72q0 40 -30 69t-71 29z" />
<glyph unicode="&#x2db;" horiz-adv-x="472" d="M231 0h124q-29 -25 -42 -37.5t-34 -36t-29.5 -46.5t-7.5 -48q2 -41 26 -58t70 -18h29v-121h-32q-217 3 -228 150q-1 19 2.5 38.5t8 34.5t15 32.5t17.5 27.5t21.5 25.5t20.5 21t21.5 19.5t17.5 16z" />
<glyph unicode="&#x2dc;" horiz-adv-x="778" d="M570 1497h122q0 -283 -164 -283q-37 0 -70 17t-88 66q-33 32 -54.5 41.5t-46.5 7.5q-33 -2 -46 -33.5t-13 -98.5h-122q0 283 163 283q41 0 73 -19t86 -66q33 -33 56 -41t47 -5q32 2 44.5 33t12.5 98z" />
<glyph unicode="&#x2dd;" horiz-adv-x="847" d="M246 1511h185l-190 -299h-117zM518 1511h183l-188 -299h-118z" />
<glyph unicode="&#x326;" horiz-adv-x="0" d="M114 -160h166v-164l-64 -163h-61l29 163h-70v164z" />
<glyph unicode="&#x394;" horiz-adv-x="1026" d="M951 196v-196h-876v194l319 1297h236zM251 185h525l-262 1086z" />
<glyph unicode="&#x3a9;" horiz-adv-x="1079" d="M105 567v427q0 115 25 205t66.5 147.5t98.5 95t117.5 53t127.5 15.5q66 0 126 -15t117.5 -52.5t99.5 -95t68 -148t26 -205.5v-427q0 -269 -149 -384h174v-183h-376v183q159 94 159 396v399q1 95 -19 165t-55 109.5t-77.5 57.5t-93.5 18q-52 0 -94 -18t-76 -57.5t-53 -109 t-19 -165.5v-399q0 -303 156 -395v-184h-375v183h177q-151 119 -151 384z" />
<glyph unicode="&#x3bc;" horiz-adv-x="1008" d="M598 1066h159v-674q4 -264 190 -266v-145h-22q-72 4 -133 39.5t-94 107.5q-32 -76 -93 -111t-135 -35q-71 0 -128.5 31t-90.5 94v-454h-159v1413h159v-670q0 -77 13 -131.5t38 -83.5t54.5 -41.5t67.5 -12.5q39 0 68.5 14t54.5 47.5t38 95.5t13 152v630z" />
<glyph unicode="&#x3c0;" horiz-adv-x="1142" d="M64 1065h1017v-148h-191v-525q4 -264 191 -266v-145h-52q-46 2 -86.5 14t-80 39t-67.5 68t-46 105t-18 145v565h-318v-917h-159v917h-190v148z" />
<glyph unicode="&#x410;" horiz-adv-x="1122" d="M847 0l-103 412h-365l-104 -412h-188l355 1491h236l357 -1491h-188zM402 601h317l-158 669z" />
<glyph unicode="&#x411;" horiz-adv-x="998" d="M116 1502h717v-182h-529v-465h181q225 -5 340 -114.5t115 -306.5v-29q-1 -197 -117 -304.5t-347 -109.5h-360v1511zM493 664h-189v-482h189q123 0 192.5 57.5t70.5 171.5l1 16q0 117 -71 177t-193 60z" />
<glyph unicode="&#x412;" horiz-adv-x="998" d="M116 1502h375q64 0 123.5 -12t115 -39t96.5 -67.5t65.5 -101.5t24.5 -136v-68q0 -114 -55 -191t-150 -116q110 -41 169.5 -127t59.5 -212v-60q0 -183 -119.5 -282t-327.5 -99h-377v1511zM733 1078v15q0 51 -14 91t-37 65t-55.5 41.5t-66.5 23t-72 6.5h-184v-468h184 q47 0 89 11.5t78 36.5t57 71t21 107zM750 418v15q0 123 -71 184.5t-190 61.5h-185v-507h185q121 0 191 60.5t70 185.5z" />
<glyph unicode="&#x413;" horiz-adv-x="919" d="M833 1491v-183h-529v-1308h-188v1491h717z" />
<glyph unicode="&#x414;" horiz-adv-x="1290" d="M1116 182h116v-438h-187v256h-799v-256h-188v438h74q88 21 141.5 103.5t53.5 237.5v968h789v-1309zM394 182h535v1126h-414v-803q0 -221 -121 -323z" />
<glyph unicode="&#x415;" horiz-adv-x="819" d="M761 1309h-457v-457h436v-181h-436v-489h457v-182h-645v1491h645v-182z" />
<glyph unicode="&#x416;" horiz-adv-x="1695" d="M1609 0h-206l-459 610v-610h-193v610l-458 -610h-206l518 760l-483 731h206l423 -577v577h193v-577l425 577h206l-484 -731z" />
<glyph unicode="&#x417;" horiz-adv-x="1002" d="M492 1510h43q53 -1 105 -14t105.5 -43.5t94 -75t66.5 -114t28 -155.5v-37q0 -117 -54.5 -197.5t-140.5 -111.5q95 -30 151 -116t56 -209v-31q-1 -87 -24.5 -157.5t-62.5 -119t-92.5 -81.5t-112 -48.5t-123.5 -16.5h-39q-60 2 -116 16t-111 47t-97 81.5t-71.5 124 t-37.5 169.5l-1 14h187q9 -70 34 -123.5t61 -85t77 -47t85 -15.5h20q98 3 165 69t67 178v12q0 121 -70.5 185t-196.5 64h-128v179h128q53 0 98 13.5t80.5 40.5t56 73t20.5 107v12q0 58 -21.5 104t-55.5 72t-70.5 40t-72.5 15h-20q-43 0 -82.5 -14.5t-74.5 -44.5t-60 -80 t-35 -116h-190l2 15q10 90 40 162.5t71.5 119.5t95.5 79t109 46t114 15z" />
<glyph unicode="&#x418;" horiz-adv-x="1083" d="M785 1491h185v-1491h-188v1097l-482 -1097h-186v1491h188v-1097z" />
<glyph unicode="&#x419;" horiz-adv-x="1083" d="M681 1841h139q-12 -102 -89.5 -170.5t-182.5 -68.5t-183 68.5t-89 170.5h139q12 -44 48.5 -72.5t84.5 -28.5q47 0 84 28.5t49 72.5zM785 1491h185v-1491h-188v1097l-482 -1097h-186v1491h188v-1097z" />
<glyph unicode="&#x41a;" horiz-adv-x="1059" d="M974 0h-206l-458 610v-610h-194v1491h194v-577l423 577h207l-484 -731z" />
<glyph unicode="&#x41b;" horiz-adv-x="1226" d="M322 1491h790v-1491h-188v1308h-414v-810q0 -112 -24 -201t-63.5 -146t-93.5 -95t-110.5 -54.5t-118.5 -18.5h-41v181q42 0 79 10.5t71.5 36t59 65t39 101t14.5 139.5v975z" />
<glyph unicode="&#x41c;" horiz-adv-x="1321" d="M980 1491h227v-1491h-187v1041l-298 -1041h-122l-298 1041v-1041h-188v1491h228l319 -1178z" />
<glyph unicode="&#x41d;" horiz-adv-x="1038" d="M736 1491h188v-1491h-188v671h-432v-671h-188v1491h188v-639h432v639z" />
<glyph unicode="&#x41e;" horiz-adv-x="1087" d="M108 498v496q0 115 25 205t66.5 147.5t98.5 95t117.5 53t127.5 15.5q66 0 126 -15t117.5 -52.5t99.5 -95t68 -148t26 -205.5v-496q0 -115 -26 -205.5t-67.5 -147.5t-99.5 -94.5t-118 -52.5t-126 -15q-67 0 -127.5 15.5t-117.5 53t-98.5 94.5t-66.5 147.5t-25 204.5z M787 516v462q0 95 -19.5 165t-54 109.5t-77 57.5t-93.5 18q-52 0 -94.5 -18t-76.5 -57.5t-52.5 -109.5t-18.5 -165v-462q0 -96 18.5 -166t52.5 -109.5t76.5 -58t94.5 -18.5q51 0 93.5 18.5t77 57.5t54 109.5t19.5 166.5z" />
<glyph unicode="&#x41f;" horiz-adv-x="1038" d="M116 1491h808v-1491h-188v1308h-432v-1308h-188v1491z" />
<glyph unicode="&#x420;" horiz-adv-x="1015" d="M116 1490h334q69 0 132 -11.5t123.5 -40.5t105 -73t71.5 -113t27 -156v-84q0 -83 -25.5 -150t-67.5 -110.5t-100 -74t-118.5 -44t-127.5 -15.5h-166v-618h-188v1490zM726 1039v31q0 55 -14.5 97.5t-38 69t-57 43.5t-67.5 23.5t-73 6.5h-172v-511h172q39 0 73 7t67 24 t57 43.5t38.5 69t14.5 96.5z" />
<glyph unicode="&#x421;" horiz-adv-x="1032" d="M114 498v496q0 115 25 205t66.5 147.5t99 95t117.5 53t127 15.5q64 0 122 -14.5t113.5 -50.5t96 -90.5t66.5 -140.5t29 -196v-34h-189l-1 32q-4 85 -24 146.5t-53 97t-72.5 52t-87.5 16.5q-52 0 -94 -18t-76.5 -57.5t-53 -109.5t-18.5 -165v-462q0 -96 18.5 -166 t53 -109.5t76.5 -58t94 -18.5q102 0 165.5 75t72.5 243v28h189v-34q-3 -109 -29 -195.5t-66.5 -141.5t-96 -91t-113.5 -50.5t-122 -14.5q-67 0 -127 15.5t-117.5 53t-99 94.5t-66.5 147.5t-25 204.5z" />
<glyph unicode="&#x422;" horiz-adv-x="941" d="M855 1491v-182h-290v-1309h-187v1309h-291v182h768z" />
<glyph unicode="&#x423;" horiz-adv-x="1106" d="M824 1491h197l-369 -898v-593h-193v592l-372 899h197l270 -681z" />
<glyph unicode="&#x424;" horiz-adv-x="1539" d="M864 1502v-164h127q100 -2 179.5 -28.5t138.5 -76.5t91 -128.5t32 -180.5v-28q0 -198 -118 -303t-323 -110h-127v-483h-188v483h-128q-206 6 -323 110.5t-117 302.5v28q0 102 32 180.5t90.5 128.5t138.5 76.5t179 28.5h128v164h188zM1249 903v14q0 52 -14 92.5t-37.5 66 t-56.5 41.5t-68 22.5t-76 6.5h-133v-471h133q51 0 93.5 11.5t79.5 36.5t58 71t21 109zM676 674v473h-133q-51 0 -94 -11t-79.5 -36t-57.5 -71.5t-21 -111.5v-14q1 -63 21.5 -109t57 -71.5t79.5 -37t94 -11.5h133z" />
<glyph unicode="&#x425;" horiz-adv-x="1083" d="M990 1491l-325 -733l333 -758h-196l-259 573l-260 -573h-196l331 756l-321 735h195l251 -561l251 561h196z" />
<glyph unicode="&#x426;" horiz-adv-x="1109" d="M924 185h128v-416h-189v231h-747v1491h188v-1309h432v1309h188v-1306z" />
<glyph unicode="&#x427;" horiz-adv-x="964" d="M685 1491h189v-1491h-189v649q-69 -128 -260 -128q-61 0 -113 11t-98.5 38t-78.5 69t-50.5 107.5t-18.5 148.5v596h188v-470q0 -90 15 -151t45 -94t67 -46t88 -13t87.5 12t67 41.5t46 85t15.5 137.5v498z" />
<glyph unicode="&#x428;" horiz-adv-x="1658" d="M1356 1491h187v-1491h-1427v1491h188v-1309h432v1309h188v-1309h432v1309z" />
<glyph unicode="&#x429;" horiz-adv-x="1728" d="M1543 185h129v-416h-188v231h-1368v1491h188v-1309h432v1309h188v-1309h432v1309h187v-1306z" />
<glyph unicode="&#x42a;" horiz-adv-x="1175" d="M438 855h178q225 -5 338 -114t114 -305v-24q0 -201 -120.5 -311t-355.5 -110h-341v1326h-169v185h356v-647zM885 417v10q0 117 -71 177t-193 60h-183v-482h183q125 0 194.5 59t69.5 176z" />
<glyph unicode="&#x42b;" horiz-adv-x="1411" d="M304 1502v-647h176q226 -5 339.5 -114t114.5 -305v-24q0 -200 -121 -310.5t-356 -110.5h-341v1511h188zM1102 1491h194v-1491h-194v1491zM304 182h182q125 0 195 59t70 176v11q0 116 -71.5 176t-193.5 60h-182v-482z" />
<glyph unicode="&#x42c;" horiz-adv-x="1041" d="M304 1502v-647h176q226 -5 339.5 -114t114.5 -305v-24q0 -200 -121 -310.5t-356 -110.5h-341v1511h188zM304 182h182q124 0 194 59t70 176v11q0 117 -71 176.5t-193 59.5h-182v-482z" />
<glyph unicode="&#x42d;" horiz-adv-x="1032" d="M58 1003v11q2 110 28 197t66.5 142.5t96 91.5t113.5 50.5t123 14.5q67 0 127 -15.5t117.5 -53t98.5 -95t66 -147.5t25 -205v-496q0 -114 -25 -204.5t-66 -147.5t-98.5 -94.5t-117.5 -53t-127 -15.5q-65 0 -123 15t-113.5 51t-96 91t-66.5 142.5t-28 197.5v12h187 q3 -89 23 -154t53 -102t73.5 -54.5t90.5 -17.5q52 0 94 18.5t76 58t53 109.5t19 166v141h-389v185h389v136q0 95 -19 165t-53 109.5t-76 57.5t-94 18q-50 0 -90.5 -17t-73.5 -54t-53 -101.5t-23 -152.5h-187z" />
<glyph unicode="&#x42e;" horiz-adv-x="1484" d="M504 841v153q0 115 25 205t66.5 147.5t99 95t117.5 53t127 15.5q66 0 126 -15t118 -52.5t100 -95t67.5 -148t25.5 -205.5v-496q0 -115 -25.5 -205.5t-67.5 -147.5t-100 -94.5t-118 -52.5t-126 -15q-67 0 -127 15.5t-117.5 53t-99 94.5t-66.5 147.5t-25 204.5v159h-200 v-657h-188v1491h188v-650h200zM1185 516v462q0 95 -20 165t-55 109.5t-77.5 57.5t-93.5 18q-52 0 -94 -18t-76.5 -57.5t-53 -109.5t-18.5 -165v-462q0 -96 18.5 -166t53 -109.5t76.5 -58t94 -18.5q51 0 93.5 18.5t77.5 57.5t55 109.5t20 166.5z" />
<glyph unicode="&#x42f;" horiz-adv-x="1028" d="M566 1502h346v-1502h-188v642h-199l-237 -642h-201l266 698q-52 17 -94.5 44t-77.5 67.5t-54.5 98t-19.5 127.5v73q0 87 27 156t71.5 113t105.5 72.5t123.5 40.5t131.5 12zM724 822v499h-185q-39 0 -73 -6.5t-67 -23.5t-56.5 -43.5t-38 -69.5t-14.5 -97v-19 q0 -54 14.5 -96.5t38 -69t56.5 -44t67 -24t73 -6.5h185z" />
<glyph unicode="&#x430;" horiz-adv-x="829" d="M627 1065h117v-1065h-117l-18 124q-72 -141 -240 -141q-44 0 -84 11t-78.5 38.5t-67 69t-45.5 107.5t-17 149v351q0 83 17 149t45.5 107.5t67 69t78.5 38.5t84 11q167 0 239 -137zM237 630v-193q0 -89 13 -151t37.5 -95.5t54.5 -48t70 -14.5t70 14.5t54 48t36 95.5 t11 151v193q0 90 -12.5 152t-37 95.5t-54 47.5t-68.5 14t-68.5 -14t-54.5 -47.5t-38 -95.5t-13 -152z" />
<glyph unicode="&#x431;" horiz-adv-x="829" d="M89 358v783q1 81 20.5 145.5t51.5 106t75.5 68.5t89 38t94.5 11q43 0 82.5 -8.5t79 -28.5t70 -50.5t53.5 -78t31 -107.5l3 -21h-159q-35 148 -159 148q-38 0 -67.5 -11.5t-54 -38.5t-37.5 -77.5t-13 -122.5v-146q32 55 84.5 84t113.5 29q46 0 88 -11.5t82.5 -38.5 t70.5 -68t48 -106.5t18 -147.5v-351q0 -83 -20 -149t-52 -107.5t-76.5 -69t-90 -38.5t-95.5 -11t-95.5 12t-88.5 40t-74.5 70t-51 107t-21.5 146zM595 437v193q0 89 -13.5 151.5t-38.5 96t-54.5 47.5t-67.5 14q-172 0 -172 -309v-193q0 -90 12.5 -151.5t36 -95.5t53.5 -48 t71 -14q40 0 69.5 14.5t54 48t37 95.5t12.5 151z" />
<glyph unicode="&#x432;" horiz-adv-x="809" d="M92 1076h260q368 0 368 -308q0 -78 -27.5 -131t-92.5 -85q145 -67 145 -248q0 -72 -20 -127.5t-63.5 -98t-119 -65t-180.5 -22.5h-270v1085zM252 616h92q124 0 170.5 34t46.5 115q0 58 -17.5 91t-65.5 51.5t-134 19.5h-92v-311zM252 135h92q138 2 191 38.5t53 129.5 q0 91 -53.5 128.5t-190.5 38.5h-92v-335z" />
<glyph unicode="&#x433;" horiz-adv-x="736" d="M670 1065v-145h-418v-920h-160v1065h578z" />
<glyph unicode="&#x434;" horiz-adv-x="1049" d="M251 1065h637v-920h97v-367h-159v222h-602v-222h-160v367h58q63 16 95 76.5t34 178.5v665zM729 145l-1 775h-317v-560q-2 -142 -75 -215h393z" />
<glyph unicode="&#x435;" horiz-adv-x="815" d="M78 358l-1 351q0 83 19.5 148.5t51.5 107t76 69t89.5 39t95 11.5t95 -11t90 -38.5t76.5 -69t52 -107.5t20 -149v-240h-505v-80q0 -75 13 -127.5t37.5 -81t54 -40.5t69.5 -12q162 0 171 220h160q-2 -81 -22 -145t-52.5 -104.5t-76 -67t-88.5 -37.5t-94 -11 q-50 0 -95.5 11.5t-89 39t-75.5 69t-51.5 107t-19.5 148.5zM581 590v98q0 72 -14 122.5t-39.5 77.5t-54 39t-63.5 12q-38 0 -67 -11.5t-54 -38.5t-38.5 -78t-13.5 -123v-98h344z" />
<glyph unicode="&#x436;" horiz-adv-x="1268" d="M1189 0h-169l-308 461v-461h-160v462l-308 -462h-168l336 546l-318 519h169l289 -434v434h160v-433l290 433h169l-318 -519z" />
<glyph unicode="&#x437;" d="M398 1084h38q151 -2 231.5 -82.5t80.5 -220.5q0 -87 -41.5 -150t-135.5 -86q101 -21 150.5 -90.5t49.5 -179.5q0 -71 -27.5 -127t-74.5 -91t-106.5 -54t-127.5 -20h-38q-44 2 -86 12.5t-85 33.5t-75 57t-52 88t-20 121h157q0 -38 12 -68.5t30 -48.5t42.5 -29.5t47 -16 t45.5 -4.5h8q92 0 142.5 45t50.5 130q0 83 -54.5 124t-157.5 41h-98v146h94q105 0 153 37t48 115q-1 81 -46 127.5t-132 46.5h-7q-23 0 -45.5 -4.5t-47 -16.5t-42.5 -30t-30 -48.5t-12 -68.5h-158q0 67 20.5 121t52.5 88t75 57.5t85 33.5t86 12z" />
<glyph unicode="&#x438;" horiz-adv-x="853" d="M603 1065h160v-1065h-160v734l-351 -734h-160v1065h160v-732z" />
<glyph unicode="&#x439;" horiz-adv-x="853" d="M557 1491h141q-12 -101 -90.5 -170.5t-183.5 -69.5t-182.5 69.5t-89.5 170.5h140q12 -44 48.5 -73t83.5 -29q48 0 85 29t48 73zM603 1065h160v-1065h-160v734l-351 -734h-160v1065h160v-733z" />
<glyph unicode="&#x43a;" horiz-adv-x="795" d="M729 0h-169l-307 461v-461h-160v1065h160v-433l289 433h168l-317 -519z" />
<glyph unicode="&#x43b;" horiz-adv-x="981" d="M253 1065h638v-1065h-160v920h-317v-568q0 -81 -18 -145.5t-46.5 -105t-68 -68t-80 -39t-86.5 -13.5h-51v145q185 2 189 266v673z" />
<glyph unicode="&#x43c;" horiz-adv-x="974" d="M716 1065h168v-1065h-146v702l-211 -702h-80l-210 702v-702h-145v1065h168l228 -801z" />
<glyph unicode="&#x43d;" horiz-adv-x="845" d="M594 1065h160v-1065h-160v476h-342v-476h-160v1065h160v-443h342v443z" />
<glyph unicode="&#x43e;" horiz-adv-x="819" d="M78 358v351q0 83 19.5 148.5t51.5 107t75.5 69t89 39t95.5 11.5t95.5 -11t90 -38.5t76.5 -69t52 -107.5t20 -149v-351q0 -83 -20 -149t-52 -107.5t-76.5 -69t-90 -38.5t-95.5 -11t-95.5 11.5t-89 39t-75.5 69t-51.5 107t-19.5 148.5zM583 437v193q0 89 -13 151.5t-38 96 t-54.5 47.5t-67.5 14q-40 0 -69.5 -14t-54 -47.5t-37 -95.5t-12.5 -152v-193q1 -90 13 -151.5t36 -95.5t54 -48t71 -14q39 0 69 14.5t54.5 48t37 95.5t11.5 151z" />
<glyph unicode="&#x43f;" horiz-adv-x="845" d="M92 1065h662v-1065h-160v920h-342v-920h-160v1065z" />
<glyph unicode="&#x440;" d="M206 1066l19 -126q37 73 100 108t143 35q44 0 83.5 -11t77.5 -38.5t66 -69t44.5 -107.5t16.5 -149v-351q0 -83 -16.5 -149t-44.5 -107.5t-66 -69t-77.5 -39t-83.5 -11.5q-70 0 -127 30t-91 91v-449h-160v1413h116zM596 435v194q0 89 -13 151t-37.5 95.5t-54.5 48 t-70 14.5t-70 -14t-53.5 -48t-35.5 -96t-11 -151v-194q0 -90 12.5 -152t36.5 -95t53.5 -47t68.5 -14t68.5 14t54.5 47t38 95t13 152z" />
<glyph unicode="&#x441;" horiz-adv-x="813" d="M78 358l-1 351q0 83 19.5 148.5t51.5 107t76 69t89.5 39t95.5 11.5q49 0 93.5 -11t88 -37t75 -66.5t52 -104t21.5 -143.5v-40h-156q-5 257 -173 257q-40 0 -69.5 -14t-54 -47.5t-37 -95.5t-12.5 -152v-193q1 -90 13 -151.5t36 -95.5t54 -48t71 -14q37 0 66 12t53.5 40 t38 80t14.5 125h156v-40q-1 -80 -21.5 -143.5t-52 -104t-75 -66.5t-88 -37t-93.5 -11q-50 0 -95.5 11.5t-89 39t-75.5 69t-51.5 107t-19.5 148.5z" />
<glyph unicode="&#x442;" horiz-adv-x="821" d="M69 1065h685v-145h-262v-920h-160v919h-263v146z" />
<glyph unicode="&#x443;" horiz-adv-x="802" d="M575 1066h159v-1078q-2 -78 -22.5 -140t-52.5 -101.5t-75 -65.5t-87.5 -36.5t-92.5 -10.5q-42 0 -81 8t-78.5 26.5t-70.5 47t-55.5 73t-35.5 100.5h165q36 -111 154 -111q39 0 68.5 11.5t54 38.5t37.5 75.5t13 118.5v102q-34 -63 -91 -93.5t-128 -30.5q-44 0 -83.5 11 t-77.5 38.5t-65.5 69t-44 107t-16.5 148.5v691h159v-612q0 -89 13 -151.5t37.5 -95.5t54.5 -47t68 -14q40 0 69.5 14t54 47t37.5 95.5t13 151.5v613z" />
<glyph unicode="&#x444;" horiz-adv-x="1326" d="M583 1491h160v-531q67 123 219 123q44 0 83.5 -11t77.5 -38.5t65.5 -69t44 -107.5t16.5 -149v-351q0 -83 -16.5 -149t-44 -107.5t-65.5 -69t-77.5 -39t-83.5 -11.5q-70 0 -127.5 30t-91.5 91v-449h-160v449q-34 -61 -91 -91t-127 -30q-44 0 -83.5 11.5t-77.5 39t-65.5 69 t-44 107.5t-16.5 149v351q0 83 16.5 149t44 107.5t65.5 69t77.5 38.5t83.5 11q151 0 218 -123v531zM583 435v194q0 89 -12 151t-36 95.5t-53.5 48t-69.5 14.5t-70 -14t-54.5 -48t-37.5 -96t-13 -151v-194q0 -90 13 -152t38 -95t54.5 -47t68.5 -14t68.5 14t54 47t37 95 t12.5 152zM1089 435v194q0 89 -13 151t-37 95.5t-54 48t-70 14.5t-70 -14.5t-54 -48t-36 -95.5t-11 -151v-194q0 -90 12.5 -152t37 -95t54 -47t68.5 -14t68.5 14t54 47t37.5 95t13 152z" />
<glyph unicode="&#x445;" horiz-adv-x="860" d="M787 1065l-235 -524l240 -541h-165l-196 407l-197 -407h-165l240 539l-234 526h166l190 -433l190 433h166z" />
<glyph unicode="&#x446;" horiz-adv-x="919" d="M754 145h102v-341h-160v196h-604v1065h160v-920h342v920h160v-920z" />
<glyph unicode="&#x447;" horiz-adv-x="840" d="M590 1065h160v-1065h-160v439q-34 -63 -91 -94t-128 -31q-44 0 -83.5 11t-77.5 38.5t-65.5 69t-44.5 107t-17 148.5v377h160v-297q0 -90 13.5 -152.5t38 -95.5t54 -47t68.5 -14q38 0 67.5 12.5t54 41.5t38 83.5t13.5 132.5v336z" />
<glyph unicode="&#x448;" horiz-adv-x="1345" d="M1096 1065h159v-1065h-1163v1065h160v-920h342v920h160v-920h342v920z" />
<glyph unicode="&#x449;" horiz-adv-x="1422" d="M1256 145h102v-341h-159v196h-1107v1065h160v-920h342v920h160v-920h342v920h160v-920z" />
<glyph unicode="&#x44a;" horiz-adv-x="888" d="M343 622h101q104 0 178.5 -20.5t118.5 -61t64.5 -94t20.5 -124.5v-37q-2 -143 -93 -218.5t-291 -75.5h-258v928h-120v146h279v-443zM667 296v8q0 93 -53 130t-189 38h-81v-337h81q135 1 187.5 36.5t54.5 124.5z" />
<glyph unicode="&#x44b;" horiz-adv-x="1130" d="M92 1065h160v-443h98q105 0 179.5 -20.5t118.5 -61t64.5 -94t20.5 -124.5v-37q-1 -143 -92.5 -218.5t-291.5 -75.5h-257v1074zM879 0v1065h160v-1065h-160zM575 296v8q0 92 -53 129.5t-189 38.5h-81v-337h81q134 1 187.5 36.5t54.5 124.5z" />
<glyph unicode="&#x44c;" horiz-adv-x="795" d="M92 1065h160v-443h98q105 0 179.5 -20.5t118.5 -61t64.5 -94t20.5 -124.5v-37q-1 -143 -92.5 -218.5t-291.5 -75.5h-257v1074zM575 296v8q0 92 -53 129.5t-189 38.5h-81v-337h81q134 1 187.5 36.5t54.5 124.5z" />
<glyph unicode="&#x44d;" horiz-adv-x="813" d="M231 709h-157q0 83 19.5 149t51 107.5t75.5 69t89.5 38.5t95 11t95 -11.5t89.5 -39t75.5 -69t51 -107t19.5 -148.5v-351q0 -83 -19.5 -148.5t-51 -107t-75.5 -69t-89.5 -39t-95 -11.5t-95 11t-89.5 38.5t-75.5 69t-51 107.5t-19.5 149h156q5 -230 172 -230 q39 0 68.5 11.5t54.5 38t38 76t13 119.5v92h-252v143h251v90q0 69 -13.5 118t-38 75t-53.5 37t-66 11q-167 0 -173 -230z" />
<glyph unicode="&#x44e;" horiz-adv-x="1171" d="M430 609v100q0 83 19.5 148.5t51.5 107t75.5 69t89 39t95.5 11.5t96 -11t90 -38.5t76.5 -69t52 -107.5t19.5 -149v-351q0 -83 -19.5 -149t-52 -107.5t-76.5 -69t-90 -38.5t-96 -11t-95.5 11.5t-89 39t-75.5 69t-51.5 107t-19.5 148.5v109h-178v-467h-160v1065h160v-456 h178zM935 437v193q0 89 -13.5 151.5t-38.5 96t-54.5 47.5t-67.5 14q-39 0 -68.5 -14t-53.5 -47.5t-36.5 -95.5t-12.5 -152v-193q0 -90 12 -151.5t36 -95.5t54 -48t70 -14t69.5 14.5t54 48t37 95.5t12.5 151z" />
<glyph unicode="&#x44f;" horiz-adv-x="800" d="M438 1076h271v-1076h-160v458l-153 -13l-170 -445h-162l182 497q-94 29 -134 89.5t-41 153.5v39q0 70 19 122.5t60.5 93t114 61t173.5 20.5zM451 607h98v324h-97q-88 -1 -137 -20t-67.5 -53.5t-18.5 -94.5q0 -57 18 -89t67 -49t137 -18z" />
<glyph unicode="&#x1e80;" horiz-adv-x="1686" d="M685 1939h197l123 -300h-131zM1410 1491h191l-310 -1491h-219l-229 1040l-229 -1040h-219l-308 1491h190l239 -1174l239 1174h177l239 -1174z" />
<glyph unicode="&#x1e81;" horiz-adv-x="1388" d="M535 1512h196l123 -298h-131zM1160 1065h161l-245 -1065h-192l-189 756l-190 -756h-192l-244 1065h161l190 -847l206 847h137l205 -847z" />
<glyph unicode="&#x1e82;" horiz-adv-x="1686" d="M808 1936h197l-190 -299h-130zM1410 1491h191l-310 -1491h-219l-229 1040l-229 -1040h-219l-308 1491h190l239 -1174l239 1174h177l239 -1174z" />
<glyph unicode="&#x1e83;" horiz-adv-x="1388" d="M657 1511h197l-188 -299h-131zM1160 1065h161l-245 -1065h-192l-189 756l-190 -756h-192l-244 1065h161l190 -847l206 847h137l205 -847z" />
<glyph unicode="&#x1e84;" horiz-adv-x="1686" d="M624 1917h165v-165h-165v165zM901 1917h166v-165h-166v165zM1410 1491h191l-310 -1491h-219l-229 1040l-229 -1040h-219l-308 1491h190l239 -1174l239 1174h177l239 -1174z" />
<glyph unicode="&#x1e85;" horiz-adv-x="1388" d="M473 1491h166v-164h-166v164zM751 1491h165v-164h-165v164zM1160 1065h161l-245 -1065h-192l-189 756l-190 -756h-192l-244 1065h161l190 -847l206 847h137l205 -847z" />
<glyph unicode="&#x1ef2;" horiz-adv-x="1096" d="M390 1939h196l122 -300h-130zM813 1491h198l-368 -890v-601h-194v600l-362 891h196l263 -676z" />
<glyph unicode="&#x1ef3;" horiz-adv-x="802" d="M242 1512h197l123 -298h-130zM575 1066h159v-1078q-2 -78 -22.5 -140t-52.5 -101.5t-75 -65.5t-87.5 -36.5t-92.5 -10.5q-42 0 -81 8t-78.5 26.5t-70.5 47t-55.5 73t-35.5 100.5h165q36 -111 154 -111q39 0 68.5 12t54 38.5t37.5 75.5t13 119v101q-34 -63 -91 -93.5 t-128 -30.5q-44 0 -83.5 11t-77.5 38.5t-65.5 69t-44 107t-16.5 148.5v691h159v-612q0 -89 13 -151.5t37.5 -95.5t54.5 -47t68 -14q40 0 69.5 14t54 47t37.5 95.5t13 151.5v613z" />
<glyph unicode="&#x2013;" horiz-adv-x="1004" d="M106 664h793v-185h-793v185z" />
<glyph unicode="&#x2014;" horiz-adv-x="1362" d="M106 664h1150v-184h-1150v184z" />
<glyph unicode="&#x2018;" horiz-adv-x="391" d="M210 1315h75v-177h-179v177l69 176h66z" />
<glyph unicode="&#x2019;" horiz-adv-x="391" d="M106 1491h179v-177l-68 -176h-66l31 176h-76v177z" />
<glyph unicode="&#x201a;" horiz-adv-x="391" d="M106 178h179v-178l-68 -176h-66l31 176h-76v178z" />
<glyph unicode="&#x201c;" horiz-adv-x="717" d="M241 1491l-31 -176h75v-177h-179v177l69 176h66zM537 1315h75v-177h-179v177l68 176h67z" />
<glyph unicode="&#x201d;" horiz-adv-x="717" d="M106 1314v177h179v-177l-68 -176h-66l31 176h-76zM433 1491h179v-177l-68 -176h-67l32 176h-76v177z" />
<glyph unicode="&#x201e;" horiz-adv-x="391" d="M106 178h179v-178l-68 -176h-66l31 176h-76v178z" />
<glyph unicode="&#x2020;" horiz-adv-x="836" d="M321 1491h194v-427h215v-184h-215v-1008h-194v1008h-215v184h215v427z" />
<glyph unicode="&#x2021;" horiz-adv-x="836" d="M321 1491h194v-427h215v-184h-215v-465h215v-183h-215v-360h-194v360h-215v183h215v465h-215v184h215v427z" />
<glyph unicode="&#x2022;" horiz-adv-x="766" d="M383 945q127 0 216 -88.5t89 -214.5q0 -127 -89 -216.5t-216 -89.5t-216 89t-89 217q0 126 89 214.5t216 88.5z" />
<glyph unicode="&#x2026;" horiz-adv-x="1017" d="M106 0v178h179v-178h-179zM420 0v178h179v-178h-179zM733 0v178h179v-178h-179z" />
<glyph unicode="&#x2030;" horiz-adv-x="2008" d="M106 983v291q0 52 17 94t43 67.5t59 42t62 23t56 6.5q29 0 59.5 -7t63 -24.5t58 -43t41.5 -67t16 -91.5v-291q0 -51 -16 -91.5t-41 -66t-58 -42.5t-63 -24t-60 -8q-27 0 -56 6t-62 23t-59 42t-43 67t-17 94zM1047 1491h138l-774 -1491h-137zM459 980v298q0 56 -36.5 84 t-79.5 28q-17 0 -35.5 -5.5t-37 -17.5t-30 -35t-11.5 -54v-298q0 -31 11.5 -54t30 -35t37 -18t35.5 -6q44 1 80 29t36 84zM878 217v292q0 52 17 94t42.5 67t59 41.5t62.5 22.5t56 6q29 0 59.5 -6.5t63 -24t57.5 -43t41 -66.5t16 -91v-292q0 -50 -16 -91t-41 -66.5 t-57.5 -42.5t-63 -24t-59.5 -8q-27 0 -56 6.5t-62.5 23t-59 41.5t-42.5 67t-17 94zM1429 217v292q0 52 17 94t43 67t59 41.5t62 22.5t56 6q29 0 59.5 -6.5t63 -24t58 -43t41.5 -66.5t16 -91v-292q0 -50 -16 -91t-41.5 -66.5t-58 -42.5t-63 -24t-59.5 -8q-27 0 -56 6.5 t-62 23t-59 41.5t-43 67t-17 94zM1229 213v299q0 56 -35.5 84t-78.5 28q-17 0 -36 -5.5t-37.5 -18t-30.5 -35.5t-12 -53v-299q0 -30 12 -53t31 -35t37 -18t36 -6q43 0 78.5 28t35.5 84zM1782 213v299q0 56 -36.5 84t-79.5 28q-17 0 -35.5 -5.5t-37 -18t-30 -35.5t-11.5 -53 v-299q0 -30 11.5 -53t30 -35t37 -18t35.5 -6q43 0 79.5 28t36.5 84z" />
<glyph unicode="&#x2039;" horiz-adv-x="508" d="M106 669l295 253v-191l-189 -158l189 -157v-191l-295 253v191z" />
<glyph unicode="&#x203a;" horiz-adv-x="508" d="M106 731v191l295 -254v-190l-295 -253v191l189 157z" />
<glyph unicode="&#x2044;" horiz-adv-x="941" d="M71 0l652 1491h147l-653 -1491h-146z" />
<glyph unicode="&#x20ac;" horiz-adv-x="1109" d="M178 882v112q0 115 25 205t66 147.5t98.5 95t117.5 53t128 15.5q64 0 121.5 -14.5t113 -50t96 -90t66.5 -140.5t29 -195v-36h-188l-1 31q-5 85 -25 147t-52.5 97.5t-72 52t-87.5 16.5q-53 0 -95 -18t-76.5 -57.5t-53.5 -109.5t-19 -165v-96h522l-86 -86h-436v-100h336 l-86 -87h-250v-93q0 -96 19 -166t53.5 -109.5t76.5 -58t95 -18.5q101 0 165 74.5t73 241.5v30h188v-35q-2 -109 -28 -195.5t-66.5 -141t-96.5 -90.5t-113.5 -50.5t-121.5 -14.5q-68 0 -128 15.5t-117.5 53t-98.5 94.5t-66 147.5t-25 204.5v111h-106v87h106v100h-106v86h106z " />
<glyph unicode="&#x2122;" horiz-adv-x="1307" d="M32 1361v130h481v-130h-170v-734h-141v734h-170zM1098 1491h177v-864h-141v596l-176 -393h-91l-176 393v-596h-142v864h177l185 -428z" />
<glyph unicode="&#x2202;" horiz-adv-x="1277" />
<glyph unicode="&#x2205;" horiz-adv-x="1303" d="M1202 951l-107 -108q105 -136 105 -309q0 -113 -43.5 -215t-117.5 -175.5t-175.5 -117t-213.5 -43.5q-172 0 -308 105l-108 -107l-130 129l106 106q-110 141 -110 318q0 111 43.5 213t117 175.5t175.5 117.5t214 44q177 0 317 -108l105 105zM650 138q109 0 199.5 53.5 t141.5 144t51 198.5q0 107 -51 197.5t-141.5 144t-199.5 53.5t-199.5 -53.5t-141.5 -144t-51 -197.5q0 -108 51 -198.5t141 -144t200 -53.5z" />
<glyph unicode="&#x220f;" horiz-adv-x="1277" />
<glyph unicode="&#x2211;" horiz-adv-x="1277" />
<glyph unicode="&#x2212;" horiz-adv-x="1160" d="M106 782h950v-183h-950v183z" />
<glyph unicode="&#x221a;" horiz-adv-x="1277" />
<glyph unicode="&#x221e;" horiz-adv-x="1277" />
<glyph unicode="&#x222b;" horiz-adv-x="772" d="M510 1552h157v-181h-87q-96 0 -96 -143v-1272q0 -64 -18.5 -113.5t-49.5 -79t-69.5 -44.5t-82.5 -15h-158v183h87q97 0 97 142v1270q0 64 18.5 113.5t49.5 79.5t69.5 45t82.5 15z" />
<glyph unicode="&#x2248;" horiz-adv-x="1181" d="M934 874h142q0 -94 -25 -168t-80.5 -120.5t-135.5 -46.5q-33 0 -62.5 5.5t-60 20t-49 24.5t-55.5 34t-54 34q-98 63 -168 60q-65 -3 -101 -51.5t-36 -122.5h-142q0 98 27 176t86.5 126.5t143.5 48.5q56 0 102.5 -17.5t114.5 -58.5q7 -4 36.5 -24t39 -26t34.5 -20 t40.5 -19t38.5 -9t45 -3q58 2 88.5 45t30.5 112zM934 467h142q0 -94 -25 -168t-80.5 -120.5t-135.5 -46.5q-33 0 -62.5 6t-60 20t-49.5 25t-55.5 34.5t-54.5 34.5q-96 62 -168 58q-65 -2 -100.5 -50.5t-35.5 -122.5h-142q0 99 27 176.5t86.5 126t143.5 48.5 q56 0 101.5 -17.5t115.5 -58.5q5 -3 36.5 -24.5t39.5 -26.5t34.5 -20t41.5 -19t38 -8.5t45 -3.5q58 2 88 45.5t30 111.5z" />
<glyph unicode="&#x2260;" horiz-adv-x="1106" d="M1029 739h-341l-67 -174h408v-183h-479l-187 -484h-197l188 484h-275v183h346l68 174h-414v183h485l181 467h196l-181 -467h269v-183z" />
<glyph unicode="&#x2264;" horiz-adv-x="1008" d="M106 751l798 418v-190l-482 -265l482 -262v-190l-798 417v72zM107 130h797v-183h-797v183z" />
<glyph unicode="&#x2265;" horiz-adv-x="1008" d="M106 979v190l798 -418v-72l-798 -417v190l483 262zM106 130h798v-183h-798v183z" />
<glyph unicode="&#x25ca;" horiz-adv-x="1277" />
<glyph unicode="&#x25fc;" horiz-adv-x="1064" d="M0 1065h1065v-1065h-1065v1065z" />
<glyph unicode="&#xfb01;" horiz-adv-x="1019" d="M515 1510h66v-144h-26q-40 -1 -67 -6.5t-49 -21.5t-34.5 -44.5t-19 -73.5t-6.5 -111v-44h202v-146h-202v-919h-161v919h-146v145h146v71q0 90 14.5 157t39.5 108t63.5 66t81 34t98.5 10zM749 1399h179v-167h-179v167zM758 1065h160v-1065h-160v1065z" />
<glyph unicode="&#xfb02;" horiz-adv-x="992" d="M515 1510h66v-144h-29q-40 -1 -66.5 -7t-48.5 -22t-34 -45.5t-18.5 -74.5t-6.5 -111l1 -41h202v-146h-202v-919h-161v919h-146v145h146v71q0 90 14.5 157t39.5 108t63.5 66t81 34t98.5 10zM749 1491h160v-1491h-160v1491z" />
<glyph horiz-adv-x="953" d="M648 1491h199l-353 -665q143 -15 198 -35.5t97 -76.5q79 -114 79 -353v-361h-189v372q0 191 -67 266q-32 33 -76 45.5t-103 12.5h-140v-696h-186v1491h187v-631z" />
<glyph horiz-adv-x="1004" d="M116 0v1502h329q106 0 190.5 -25t146 -74.5t94.5 -128.5t33 -183v-29q-1 -119 -51 -201t-136 -129q71 -31 115 -91q80 -113 80 -324v-317h-188v334q0 164 -61 244q-59 77 -186 77h-179v-655h-187zM474 1310h-170v-463h170q37 0 71 6.5t67.5 23t57.5 41t39.5 63.5t15.5 88 v16q0 62 -20.5 107.5t-57.5 70t-79.5 36t-93.5 11.5z" />
<glyph horiz-adv-x="525" d="M396 1510h58v-144h-18q-44 0 -71.5 -6t-51 -21.5t-36 -45t-19 -76t-6.5 -115.5v-37h202v-146h-202v-919h-160v1135q0 92 14.5 159t39.5 108t65 65.5t83.5 33.5t101.5 9z" />
<glyph horiz-adv-x="798" d="M527 1065h169l-271 -474q82 -9 127.5 -24.5t80.5 -48.5q96 -97 96 -343v-175h-159v185q0 210 -81 276q-30 24 -69.5 32.5t-95.5 8.5h-74v-502h-160v1491h161v-908z" />
<glyph horiz-adv-x="525" d="M252 921v-509q0 -72 6 -120.5t18.5 -79.5t36 -47.5t51.5 -22.5t73 -6h17v-144h-57q-58 0 -101.5 8.5t-83.5 33t-65.5 65.5t-40 108.5t-14.5 159.5v1023h160v-325h202v-144h-202z" />
<glyph horiz-adv-x="1004" d="M560 1502h328v-1502h-186v655h-180q-122 0 -182 -72q-64 -78 -64 -249v-334h-189v318q0 202 76 312q48 68 120 101q-87 46 -137 128.5t-50 202.5v29q0 104 33 183t94 128.5t145.5 74.5t191.5 25zM701 847v462h-171q-51 0 -93.5 -11t-79 -35t-57 -69.5t-20.5 -107.5v-17 q0 -49 15 -88t39.5 -63.5t57.5 -41t67.5 -23t70.5 -6.5h171z" />
<glyph horiz-adv-x="1506" d="M1399 1491l-352 -664q132 -14 183.5 -30t92.5 -58q99 -112 99 -378v-361h-190v372q0 210 -82 279q-53 45 -164 45h-138v-696h-188v696h-138q-121 0 -175 -55q-71 -74 -71 -269v-372h-189v361q0 252 86 367q41 50 96 67.5t193 31.5l-354 664h200l352 -631v631h188v-631 l353 631h198z" />
<glyph horiz-adv-x="793" d="M705 1076v-1076h-160v459h-74q-70 0 -115 -12.5t-74 -50.5q-56 -71 -56 -245v-151h-159v140q0 197 59 296q31 53 80 84q-74 30 -106.5 84t-32.5 136v39q0 70 19 122.5t60.5 93t114 61t173.5 20.5h271zM546 931h-98q-88 -1 -137.5 -20t-67.5 -53.5t-18 -94.5q0 -54 16 -86 t59.5 -49.5t121.5 -20.5h124v324z" />
<glyph horiz-adv-x="798" d="M527 1065h169l-271 -474q88 -9 136.5 -26.5t84.5 -56.5q83 -100 83 -333v-175h-159v185q0 199 -73 268q-30 30 -71.5 39.5t-101.5 9.5h-74v-502h-160v1065h161v-482z" />
<glyph horiz-adv-x="1256" d="M1154 1065l-271 -474q93 -11 140.5 -28t83.5 -59q81 -101 81 -330v-174h-159v185q0 191 -68 262q-31 33 -74 44t-105 11h-74v-502h-160v502h-74q-59 0 -101 -10t-72 -39q-73 -67 -73 -268v-185h-159v174q0 240 90 339q36 36 81.5 51.5t132.5 26.5l-271 474h168l278 -482 v482h160v-482l277 482h169z" />
<glyph horiz-adv-x="510" d="M251 725h21q41 -1 78 -13t69 -37t51 -68.5t20 -100.5v-6q0 -42 -15 -78t-39.5 -62t-54.5 -49t-61.5 -44t-58.5 -42.5t-47.5 -49.5t-26.5 -60h296v-115h-456v62q0 54 18.5 98.5t48.5 74.5t66.5 56t72.5 48t66 44.5t48.5 52t18.5 64.5q0 56 -30 83.5t-67 28.5h-7 q-41 0 -73 -27.5t-42 -82.5h-124l1 8q6 56 28.5 98.5t55.5 66.5t69 36t74 14z" />
<glyph horiz-adv-x="547" d="M223 720h126l-198 -469h189v293h126v-293h59v-115h-59v-136h-124v136h-321v125z" />
<glyph horiz-adv-x="272" d="M40 1491h193v-719h-125v604h-68v115z" />
<glyph horiz-adv-x="544" d="M264 1500l24 -1q38 -1 73 -11t67 -31.5t51.5 -60t19.5 -89.5v-13q0 -52 -28 -93t-67 -52q45 -18 72.5 -62t27.5 -102v-14q0 -50 -18 -88.5t-49 -62t-69.5 -35.5t-81.5 -12h-22q-37 0 -73.5 11.5t-69 35.5t-55 65.5t-26.5 95.5v5h117q8 -49 40 -73.5t71 -25.5h14 q38 0 68 23.5t31 65.5v8q0 49 -32 78.5t-84 29.5h-65v116h65q43 0 76.5 21.5t33.5 63.5v7q0 40 -29 62t-64 22h-13q-38 0 -68.5 -22.5t-40.5 -68.5h-118v5q7 67 42.5 114t81.5 67t98 21z" />
</font>
</defs>
</svg>
